imdb
rating

7.3
Talaash

Talaash (2012)

Crime, Drama, Musical, Romance, Thriller

Full description

Talaash (2012) 1CD DVDRip XviD MP3

Size 744.43 MB   0 seeders     Added 2013-02-19 23:32:02

Stream torrent
Starting‥ You need BitLord! Get it from BitLord.com
To download or stream you need BitLord. Visit them at BitLord.com
mastitorrents.com
  
http://mastitorrents.com/forums/index.php
  
http://thepiratebay.se/user/HDvideos/0/7

Talaash (2012) Hindi 1CD DVDRip XviD MP3 ESubs

Rip INformation

Format                                   : AVI
Format/Info                              : Audio Video Interleave
File size                                : 698 MiB
Duration                                 : 2h 20mn
Overall bit rate                         : 694 Kbps

Video

Codec ID                                 : XVID
Codec ID/Hint                            : XviD
Duration                                 : 2h 20mn
Bit rate                                 : 558 Kbps
Width                                    : 688 pixels
Height                                   : 288 pixels
Display aspect ratio                     : 2.40:1
Frame rate                               : 23.976 fps
Color space                              : YUV
Chroma subsampling                       : 4:2:0
Bit depth                                : 8 bits
Scan type                                : Progressive
Compression mode                         : Lossy
Bits/(Pixel*Frame)                       : 0.118
Stream size                              : 561 MiB (80%)

Audio

Codec ID                                 : 2000
Duration                                 : 2h 20mn
Bit rate mode                            : Constant
Bit rate                                 : 128 Kbps
Channel(s)                               : 6 channels
Channel positions                        : Front: L C R, Side: L R, LFE
Sampling rate                            : 48.0 KHz
Bit depth                                : 16 bits
Compression mode                         : Lossy
Stream size                              : 129 MiB (18%)
Alignment                                : Aligned on interleaves
Interleave, duration                     : 64 ms (1.53 video frames)
Interleave, preload duration             : 192 ms
Title                                    : K@rtik

Screens: 
image 
image 
image 
image 
image 
image 
image 
image 
image 
image 
image 
image		
Talaash (2012) 1CD DVDRip XviD MP3/DVD Cover.jpg 1.716 MB
Talaash (2012) 1CD DVDRip XviD MP3/Talaash (2012) 1CD DVDRip XviD MP3.avi 731.65 MB
Talaash (2012) 1CD DVDRip XviD MP3/Talaash (2012)-Sample.avi 11.061 MB
Gathering some info...

Register and log in Isohunt and see no captcha anymore!

4000 symbols left
Hash 355785b66136a788c75e0d4d01afbd7453c24084

Related torrents for "Talaash (2012) 1CD DVDRip XviD MP3"

Torrent search:

dvdrip 2012