The Script -If You Could See Me Now 2013 M4A+MP4 (1080p) x264 [VX] [P2PDL] Verified

Size 48.252 MB   0 seeders     Added 2013-02-20 05:38:20

Stream torrent
Starting‥ You need BitLord! Get it from BitLord.com
10
To download or stream you need BitLord. Visit them at BitLord.com
							The Script -If You Could See Me Now 2013 M4A+MP4 (1080p) x264 [VX] [P2PDL]
 1080p Full HD MP4 Video
 +
 128 Kbps/VBR M4A Audio
General
Complete name : The Script - If You Could See Me Now (1080p) x264 [VX] [P2PDL].mp4
Format : MPEG-4
Format profile : Base Media / Version 2
Codec ID : mp42
File size : 42.1 MiB
Duration : 3mn 49s
Overall bit rate mode : Variable
Overall bit rate : 1 538 Kbps
Video
Format : AVC
Width : 1 920 pixels
Height : 784 pixels
Display aspect ratio : 2.40:1
Frame rate mode : Constant
Frame rate : 25.000 fps
Color space : YUV
Chroma subsampling : 4:2:0
Bit depth : 8 bits
Scan type : Progressive
Bits/(Pixel*Frame) : 0.037
Stream size : 38.5 MiB (91%)
Writing library : x264 core 129
Audio
Format : AAC
Bit rate mode : Variable
Bit rate : 127 Kbps
Channel(s) : 2 channels
Channel positions : Front: L R
Sampling rate : 48.0 KHz
Stream size : 3.49 MiB (8%)
Subtitles : NoScreens:
------------------------------------------------------------------------
Notes:
* Recommended to use latest version VLC Media Player.
* Install shark007 codecs in case of any kind of problem in playback (For non-VLC Media Player users).
* Alternatively, install Core AVC codecs, the fastest decoder that there is coupled with Community Center Codec Pack and play on Windows Media Player Classic.
Greets to: VYTO, a2zRG, MusiK_KinG, Kuroyukihime, Caveman, Ash968, Neon, TwentyForty, Masta, TorDigger and staff members at ExtraTorrent, TPB, H33T, KAT, 1337x, PublicHD, Ahashare, TorrentMafia, Limetorrents, BTScene, P2PDL, and all others
Encoder Notes: Looking For Early Access To Anything You Can Provide DVDScr, R5, DVDRips, BluRay, Direct Audio, Early Music
Releases, Seedboxes, Links, Dedicated Servers anything u can provide, Advance / Promo CDs/DVDs. If You Got anything to
offer contact me at "prg@hush.com"
						
The Script -If You Could See Me Now 2013 M4A+MP4 (1080p) x264 [VX] [P2PDL]/The Script - If You Could See Me Now (1080p) x264 [VX] [P2PDL].mp4 44.165 MB
The Script -If You Could See Me Now 2013 M4A+MP4 (1080p) x264 [VX] [P2PDL]/The Script - If You Could See Me Now.m4a 3.943 MB
The Script -If You Could See Me Now 2013 M4A+MP4 (1080p) x264 [VX] [P2PDL]/Cover.jpg 134.454 KB
Gathering some info...

Register and log in Isohunt and see no captcha anymore!

4000 symbols left
Hash 460c4bfd731cc87e82ad9ed4947533f3bb63892d

Related torrents for "The Script -If You Could See Me Now 2013 M4A+MP4 (1080p) x264 [VX] [P2PDL]"

Torrent search:

x264 fullhd 2013