imdb
rating

7.9
NCIS

NCIS (2003)

Action, Adventure, Crime, Drama

Full description

NCIS.Los.Angeles.S04E15.HDTV.Xvid-MrX Verified

Size 392.912 MB   0 seeders     Added 2013-02-20 06:45:38

Stream torrent
Starting‥ You need BitLord! Get it from 1BitLord.com
To download or stream you need BitLord. Visit them at BitLord.com
   _____       ____  ___
  /     ______   /  /
 /   /  _  __      /
/    Y      | /     
____|__  /__| /___/  
        /           _/


NCIS.Los.Angeles.S04E15.HDTV.Xvid-MrX 
http://www.cbs.com/shows/ncis_los_angeles/



General
Complete name                            : NCIS.Los.Angeles.S04E15.HDTV.Xvid-MrX.avi
Format                                   : AVI
Format/Info                              : Audio Video Interleave
File size                                : 374 MiB
Duration                                 : 42mn 56s
Overall bit rate mode                    : Variable
Overall bit rate                         : 1 217 Kbps

Video
ID                                       : 0
Format                                   : MPEG-4 Visual
Format profile                           : Advanced Simple@L5
Format settings, BVOP                    : 1
Format settings, QPel                    : No
Format settings, GMC                     : No warppoints
Format settings, Matrix                  : Default (H.263)
Muxing mode                              : Packed bitstream
Codec ID                                 : XVID
Codec ID/Hint                            : XviD
Duration                                 : 42mn 56s
Bit rate                                 : 1 062 Kbps
Width                                    : 640 pixels
Height                                   : 352 pixels
Display aspect ratio                     : 16:9
Frame rate                               : 23.976 fps
Color space                              : YUV
Chroma subsampling                       : 4:2:0
Bit depth                                : 8 bits
Scan type                                : Progressive
Compression mode                         : Lossy
Bits/(Pixel*Frame)                       : 0.197
Stream size                              : 326 MiB (87%)
Writing library                          : XviD 1.2.1 (UTC 2008-12-04)

Audio
ID                                       : 1
Format                                   : MPEG Audio
Format version                           : Version 1
Format profile                           : Layer 3
Codec ID                                 : 55
Codec ID/Hint                            : MP3
Duration                                 : 42mn 56s
Bit rate mode                            : Variable
Bit rate                                 : 143 Kbps
Minimum bit rate                         : 32.0 Kbps
Channel(s)                               : 2 channels
Sampling rate                            : 48.0 KHz
Compression mode                         : Lossy
Stream size                              : 43.9 MiB (12%)
Alignment                                : Aligned on interleaves
Interleave, duration                     : 24 ms (0.58 video frame)
Interleave, preload duration             : 59 ms
Title                                    : NCIS.Los.Angeles.S04E15
Writing library                          : LAME3.99r
Encoding settings                        : -m s -V 4 -q 0 -lowpass 17.5 --vbr-new -b 32
		
NCIS.Los.Angeles.S04E15.HDTV.Xvid-MrX/NCIS.Los.Angeles.S04E15.HDTV.Xvid-MrX.avi 392.137 MB
NCIS.Los.Angeles.S04E15.HDTV.Xvid-MrX/NCIS.Los.Angeles.S04E15.HDTV.Xvid-MrX.png 772.29 KB
NCIS.Los.Angeles.S04E15.HDTV.Xvid-MrX/NCIS.Los.Angeles.S04E15.HDTV.Xvid-MrX.nfo 3.113 KB
Gathering some info...

Register and log in Isohunt and see no captcha anymore!

4000 symbols left
Hash 50e2b9e3af78f1d983a8c566998802255c72dbd2

Related torrents for "NCIS.Los.Angeles.S04E15.HDTV.Xvid-MrX"

Torrent search:

season 04 hdtv episode 15