imdb
rating

3.2
Pimp Bullies

Pimp Bullies (2011)

Action, Crime, Thriller

Full description
quality   dvdrip hd bd

Pimp Bullies 2011 DVDRip XViD juggs

Size 745.319 MB   0 seeders     Added 2013-02-20 07:57:55

Stream torrent
Starting‥ You need BitLord! Get it from BitLord.com
To download or stream you need BitLord. Visit them at BitLord.com
							
Source : DVDR-TV2LAX9
Format : AVI
Format/Info : Audio Video Interleave
File size : 701 MiB
Duration : 1h 18mn
Overall bit rate : 1 253 Kbps
Writing library : VirtualDub build 32842/release
Video
ID : 0
Format : MPEG-4 Visual
Format profile : Advanced Simple@L5
Format settings, BVOP : 4
Format settings, QPel : No
Format settings, GMC : No warppoints
Format settings, Matrix : Default (H.263)
Muxing mode : Packed bitstream
Codec ID : XVID
Codec ID/Hint : XviD
Duration : 1h 18mn
Bit rate : 1 115 Kbps
Width : 640 pixels
Height : 352 pixels
Display aspect ratio : 16:9
Frame rate : 25.000 fps
Color space : YUV
Chroma subsampling : 4:2:0
Bit depth : 8 bits
Scan type : Progressive
Compression mode : Lossy
Bits/(Pixel*Frame) : 0.198
Stream size : 624 MiB (89%)
Writing library : XviD 64
Audio
ID : 1
Format : MPEG Audio
Format version : Version 1
Format profile : Layer 3
Codec ID : 55
Codec ID/Hint : MP3
Duration : 1h 18mn
Bit rate mode : Constant
Bit rate : 128 Kbps
Channel(s) : 2 channels
Sampling rate : 44.1 KHz
Compression mode : Lossy
Stream size : 71.7 MiB (10%)
Alignment : Split accross interleaves
Interleave, duration : 40 ms (1.00 video frame)
Interleave, preload duration : 500 ms
Writing library : LAME3.99r
Encoding settings : -m s -V 4 -q 3 -lowpass 17 -b 128
Plot
Five suspects holding a piece of the truth behind an unsolved crime.
[embed=youtube]http://www.youtube.com/watch?v=pC2TKsOBRsI[/embed]
						
Pimp Bullies 2011 DVDRip XViD juggs/Pimp Bullies 2011 DVDRip XViD juggs.avi 735.453 MB
Pimp Bullies 2011 DVDRip XViD juggs/Torrent Downloaded From ExtraTorrent.com.txt 339 B
Pimp Bullies 2011 DVDRip XViD juggs/sample.avi 9.865 MB
Gathering some info...

Register and log in Isohunt and see no captcha anymore!

4000 symbols left
Hash 6b2cd6eeee427b019aee997e6e14f7ae72a9f35b

Related torrents for "Pimp Bullies 2011 DVDRip XViD juggs"

Torrent search:

dvdrip 2011