imdb
rating

5.3
On the Inside

On the Inside (2011)

Drama, Thriller

Full description
quality   dvdrip bd x264 hd

Life on the Inside Part 1 [RTE Ireland] HQ PDTV x264 AC3 DeViL303

Size 584.562 MB   0 seeders     Added 2013-02-20 08:18:27

Stream torrent
Starting‥ You need BitLord! Get it from 1BitLord.com
To download or stream you need BitLord. Visit them at BitLord.com
Life on the Inside Part 1 [RTE Ireland] HQ PDTV x264 AC3 DeViL303

Broadcast: Mon 18 Feb 2013 
Part one of two. 
Documentary exploring Irelands prison system, offering an insight into life behind bars at the Wheatfield and Shelton Abbey institutions. 


File info:
Complete Name:                           :Life on the Inside Part 1 [RTE Ireland] HQ PDTV x264 AC3 DeViL303.mkv
Format                                   : Matroska
Format version                           : Version 1
File size                                : 557 MiB
Duration                                 : 52mn 3s
Overall bit rate mode                    : Variable
Overall bit rate                         : 1 497 Kbps
Encoded date                             : UTC 2013-02-19 02:55:42
Writing application                      : mkvmerge v2.5.3 ('Boogie') built on Mar  7 2009 15:00:41
Writing library                          : libebml v0.7.7 + libmatroska v0.8.1

Video
ID                                       : 1
Format                                   : AVC
Format/Info                              : Advanced Video Codec
Format profile                           : High@L3.0
Format settings, CABAC                   : Yes
Format settings, ReFrames                : 3 frames
Codec ID                                 : V_MPEG4/ISO/AVC
Duration                                 : 52mn 3s
Bit rate mode                            : Variable
Bit rate                                 : 1 303 Kbps
Maximum bit rate                         : 12.0 Mbps
Width                                    : 720 pixels
Height                                   : 576 pixels
Display aspect ratio                     : 16:9
Original display aspect ratio            : 5:4
Frame rate mode                          : Constant
Frame rate                               : 25.000 fps
Standard                                 : PAL
Color space                              : YUV
Chroma subsampling                       : 4:2:0
Bit depth                                : 8 bits
Scan type                                : Progressive
Bits/(Pixel*Frame)                       : 0.126
Stream size                              : 475 MiB (85%)
Writing library                          : x264 core 93 r1542M 5b86182
Encoding settings                        : cabac=1 / ref=3 / deblock=1:-1:-1 / 
Default                                  : Yes
Forced                                   : No

Audio
ID                                       : 2
Format                                   : AC-3
Format/Info                              : Audio Coding 3
Mode extension                           : CM (complete main)
Format settings, Endianness              : Big
Codec ID                                 : A_AC3
Duration                                 : 52mn 3s
Bit rate mode                            : Constant
Bit rate                                 : 192 Kbps
Channel(s)                               : 2 channels
Channel positions                        : Front: L R
Sampling rate                            : 48.0 KHz
Bit depth                                : 16 bits
Compression mode                         : Lossy
Stream size                              : 71.5 MiB (13%)
Default                                  : Yes
Forced                                   : No		
Life on the Inside Part 1 [RTE Ireland] HQ PDTV x264 AC3 DeViL303/Life on the Inside Part 1 [RTE Ireland] HQ PDTV x264 AC3 DeViL303.mkv 584.447 MB
Life on the Inside Part 1 [RTE Ireland] HQ PDTV x264 AC3 DeViL303/Life on the Inside Part 1 [RTE Ireland] HQ PDTV x264 AC3 DeViL303.jpg 109.91 KB
Life on the Inside Part 1 [RTE Ireland] HQ PDTV x264 AC3 DeViL303/Life on the Inside Part 1 [RTE Ireland] HQ PDTV x264 AC3 DeViL303.txt 5.175 KB
Gathering some info...

Register and log in Isohunt and see no captcha anymore!

4000 symbols left
Hash c473f56a4b2a4a3338d1139fe2a2a2105b441c2b

Related torrents for "Life on the Inside Part 1 [RTE Ireland] HQ PDTV x264 AC3 DeViL303"

Torrent search:

x264 hdtv