imdb
rating

7.8
The 36th Chamber of Shaolin

The 36th Chamber of Shaolin (1978)

Action, Adventure

Full description
quality   x264 dvdrip hd bd hdtv

The 36th Chamber of Shaolin (1978)-alE13

Size 3.319 GB   0 seeders     Added 2013-02-20 08:38:30

Stream torrent
Starting‥ You need BitLord! Get it from BitLord.com
To download or stream you need BitLord. Visit them at BitLord.com
							The file containing - sample!!!
Plik zawiera - sample !!!
gatunek: Dramat Akcja Sztuki walki
produkcja: Hongkong
premiera: 2 February 1978 (Hong Kong) 
reżyseria: Chia-Liang Liu
scenariusz: Kuang Ni
muzyka: Yung-Yu Chen
zdjęcia: Huang Yeh-tai
czas: 01:56:10
Opis:
The anti-Ching patriots, under the guidance of Ho Kuang-han, have secretly 
set up their base in Canton, disguised as school masters. During a brutal 
Manchu attack, Lui manages to escape and devotes himself to learning the 
martial arts in order to seek revenge. In a short period of time he masters 
the deadly use of his fists, feet and palms, along with such weapons as 
swords, sticks, and lances. With his learning complete, he takes on the Manchus.
Filmów kung-fu, których akcja rozgrywała się w osławionym klasztorze 
Shaolin nakręcono wiele, jednak żaden z nich nie ukazuje sztuki walki 
mnichów tak dobrze jak klasyczna "36 komnata Shaolin". Pokazana po raz 
pierwszy w Hongkongu 2 lutego 1978 roku, "36 komnata Shaolin" jest 
dziełem legendarnego reżysera filmów kung-fu Liu Chia-Lianga.
Obsada:
 Hoi Sang Lee........Starszy mnich
 Siu Tien Yuen.......Nauczyciel
 Billy Chan..........Ming
Dane Techniczne:
The 36th Chamber of Shaolin (1978)-alE13.mkv
Format : Matroska
Format version : Version 2
File size : 3.06 GiB
Duration : 1h 56mn
Overall bit rate : 3 769 Kbps
Movie name : The 36th Chamber of Shaolin (1978)-alE13
Encoded date : UTC 2013-02-20 10:25:27
Writing application : mkvmerge v5.8.0 
Writing library : libebml v1.2.3 + libmatroska v1.3.0
Video
ID : 1
Format : AVC
Format/Info : Advanced Video Codec
Format profile : High@L4.0
Format settings, CABAC : Yes
Format settings, ReFrames : 2 frames
Muxing mode : Header stripping
Codec ID : V_MPEG4/ISO/AVC
Duration : 1h 56mn
Bit rate : 3 000 Kbps
Width : 1 920 pixels
Height : 1 080 pixels
Display aspect ratio : 16:9
Frame rate mode : Constant
Frame rate : 23.976 fps
Color space : YUV
Chroma subsampling : 4:2:0
Bit depth : 8 bits
Scan type : Progressive
Bits/(Pixel*Frame) : 0.060
Stream size : 2.37 GiB (78%)
Writing library : x264 core 112 r1834 a51816a
Audio
ID : 2
Format : DTS
Format/Info : Digital Theater Systems
Mode : 16
Format settings, Endianness : Big
Muxing mode : Header stripping
Codec ID : A_DTS
Duration : 1h 56mn
Bit rate mode : Constant
Bit rate : 768 Kbps
Channel(s) : 2 channels
Channel positions : Front: L R
Sampling rate : 48.0 KHz
Bit depth : 24 bits
Compression mode : Lossy
Stream size : 638 MiB (20%)
Language : Chinese
Text #1
ID : 3
Format : VobSub
Muxing mode : zlib
Codec ID : S_VOBSUB
Codec ID/Info : The same subtitle format used on DVDs
Language : Polish
Text #2
ID : 4
Format : UTF-8
Codec ID : S_TEXT/UTF8
Codec ID/Info : UTF-8 Plain Text
Language : English
Menu
00:00:00.000 : :Chapter 01
00:11:07.500 : :Chapter 02
00:22:02.446 : :Chapter 03
00:31:12.245 : :Chapter 04
00:38:43.779 : :Chapter 05
00:48:24.693 : :Chapter 06
01:00:44.098 : :Chapter 07
01:11:35.165 : :Chapter 08
01:19:17.335 : :Chapter 09
01:28:06.572 : :Chapter 10
01:40:13.048 : :Chapter 11
01:49:03.161 : :Chapter 12
						
The 36th Chamber of Shaolin (1978)-alE13/sub/The 36th Chamber of Shaolin (1978)-alE13.sub 4.049 MB
The 36th Chamber of Shaolin (1978)-alE13/sub/The 36th Chamber of Shaolin (1978)-alE13.srt 53.196 KB
The 36th Chamber of Shaolin (1978)-alE13/sub/The 36th Chamber of Shaolin (1978)-alE13.idx 37.56 KB
Gathering some info...

Register and log in Isohunt and see no captcha anymore!

4000 symbols left
Hash fccda413aaaebcf13abb671e1c3c7c03173ae34d

Related torrents for "The 36th Chamber of Shaolin (1978)-alE13"

Torrent search:

1978