Saadi Love Story 2013 720p HDRip x264 [5.1 Ch] ESubs Punjabi By JaGatJeetSanDhu

Size 804.542 MB   0 seeders     Added 2013-02-20 08:33:49

Stream torrent
Starting‥ You need BitLord! Get it from BitLord.com
10
To download or stream you need BitLord. Visit them at BitLord.com
General
Complete name                            : Saadi Love Story 2013 720p HDRip x264 5.1 Ch Punjabi By JaGatJeetSanDhu.mkv
Format                                   : Matroska
Format version                           : Version 4 / Version 2
File size                                : 751 MiB
Duration                                 : 1h 44mn
Overall bit rate                         : 1 002 Kbps
Movie name                               : Saadi Love Story | 720p | HDRip | JaGatJeetSanDhu

Video
ID                                       : 1
Format                                   : AVC
Format/Info                              : Advanced Video Codec
Format profile                           : High@L3.1
Format settings, CABAC                   : Yes
Format settings, ReFrames                : 4 frames
Codec ID                                 : V_MPEG4/ISO/AVC
Duration                                 : 1h 44mn
Bit rate                                 : 616 Kbps
Width                                    : 1 280 pixels
Height                                   : 544 pixels
Display aspect ratio                     : 2.35:1
Frame rate mode                          : Constant
Frame rate                               : 29.970 fps
Color space                              : YUV
Chroma subsampling                       : 4:2:0
Bit depth                                : 8 bits
Scan type                                : Progressive
Bits/(Pixel*Frame)                       : 0.030
Stream size                              : 448 MiB (60%)
Title                                    : JaGatJeetSanDhu
Writing library                          : x264 core 
Language                                 : English
Default                                  : Yes
Forced                                   : No

Audio
ID                                       : 2
Format                                   : AC-3
Format/Info                              : Audio Coding 3
Mode extension                           : CM (complete main)
Format settings, Endianness              : Big
Codec ID                                 : A_AC3
Duration                                 : 1h 44mn
Bit rate mode                            : Constant
Bit rate                                 : 384 Kbps
Channel(s)                               : 6 channels
Channel positions                        : Front: L C R, Side: L R, LFE
Sampling rate                            : 48.0 KHz
Bit depth                                : 16 bits
Compression mode                         : Lossy
Stream size                              : 288 MiB (38%)
Title                                    : JaGatJeetSanDhu
Language                                 : Panjabi
Default                                  : Yes
Forced                                   : No

Screens
 
image
 
image
 
image
 
image
 
image
 
image
 
image
 
image
 
image
 
image
 
image
 
image
 
image
 
image		
Saadi Love Story 2013 720p HDRip x264 [5.1 Ch] ESubs Punjabi By JaGatJeetSanDhu/Read For More Info.txt 977 B
Saadi Love Story 2013 720p HDRip x264 [5.1 Ch] ESubs Punjabi By JaGatJeetSanDhu/Saadi Love Story 2013 720p HDRip x264 5.1 Ch Punjabi By JaGatJeetSanDhu.mkv 787.464 MB
Saadi Love Story 2013 720p HDRip x264 [5.1 Ch] ESubs Punjabi By JaGatJeetSanDhu/Saadi Love Story 2013 720p HDRip x264 5.1 Ch Punjabi By JaGatJeetSanDhu.srt 133.455 KB
Gathering some info...

Register and log in Isohunt and see no captcha anymore!

4000 symbols left
Hash 63eb80ca859b34c5a2b0dc975f50ac065ff1818e