Доктор Живаго (2006)

Доктор Живаго (2006) (2006)

Drama

Full description

The Painted Veil [2006] 720p BRRip H264 AC3 - CODY

Size 1.941 GB   8 seeders     Added 2013-02-20 16:46:47

Stream torrent
Starting‥ You need BitLord! Get it from BitLord.com
To download or stream you need BitLord. Visit them at BitLord.com
General
Complete name                            : The Painted Veil [2006] 720p BRRip H264 AC3 - CODY.mp4
Format                                   : MPEG-4
Format profile                           : Base Media
Codec ID                                 : isom
File size                                : 1.81 GiB
Duration                                 : 2h 4mn
Overall bit rate mode                    : Variable
Overall bit rate                         : 2 071 Kbps
Encoded date                             : UTC 2013-02-14 17:21:25
Tagged date                              : UTC 2013-02-14 17:21:25

Video
ID                                       : 1
Format                                   : AVC
Format/Info                              : Advanced Video Codec
Format profile                           : High@L4.1
Format settings, CABAC                   : Yes
Format settings, ReFrames                : 5 frames
Codec ID                                 : avc1
Codec ID/Info                            : Advanced Video Coding
Duration                                 : 2h 4mn
Bit rate mode                            : Variable
Bit rate                                 : 1 620 Kbps
Maximum bit rate                         : 20.0 Mbps
Width                                    : 1 280 pixels
Height                                   : 528 pixels
Display aspect ratio                     : 2.40:1
Frame rate mode                          : Constant
Frame rate                               : 23.976 fps
Color space                              : YUV
Chroma subsampling                       : 4:2:0
Bit depth                                : 8 bits
Scan type                                : Progressive
Bits/(Pixel*Frame)                       : 0.100
Stream size                              : 1.41 GiB (78%)
Writing library                          : x264 core 125 r2208 d9d2288
Encoding settings                        : cabac=1 / ref=5 / deblock=1:-1:-1 / analyse=0x3:0x113 / me=hex / subme=9 /
 psy=1 / psy_rd=1.00:0.15 / mixed_ref=1 / me_range=16 / chroma_me=1 / trellis=2 / 8x8dct=1 / cqm=0 /
 deadzone=21,11 / fast_pskip=1 / chroma_qp_offset=-3 / threads=9 / lookahead_threads=1 / sliced_threads=0 /
 slices=4 / nr=0 / decimate=1 / interlaced=0 / bluray_compat=0 / constrained_intra=0 / bframes=5 / 
b_pyramid=2 / b_adapt=2 / b_bias=0 / direct=3 / weightb=1 / open_gop=0 / weightp=2 / keyint=250 /
 keyint_min=23 / scenecut=40 / intra_refresh=0 / rc_lookahead=50 / rc=2pass / mbtree=1 / bitrate=1620 /
 ratetol=1.0 / qcomp=0.90 / qpmin=10 / qpmax=51 / qpstep=4 / cplxblur=20.0 / qblur=0.5 / 
vbv_maxrate=20000 / vbv_bufsize=40000 / nal_hrd=vbr / ip_ratio=1.40 / aq=1:1.50
Encoded date                             : UTC 2013-02-14 17:21:25
Tagged date                              : UTC 2013-02-14 17:21:51
Color primaries                          : Generic film

Audio
ID                                       : 2
Format                                   : AC-3
Format/Info                              : Audio Coding 3
Mode extension                           : CM (complete main)
Format settings, Endianness              : Big
Codec ID                                 : ac-3
Duration                                 : 2h 4mn
Bit rate mode                            : Constant
Bit rate                                 : 448 Kbps
Channel(s)                               : 6 channels
Channel positions                        : Front: L C R, Side: L R, LFE
Sampling rate                            : 48.0 KHz
Bit depth                                : 16 bits
Compression mode                         : Lossy
Delay relative to video                  : 125ms
Stream size                              : 400 MiB (22%)
Encoded date                             : UTC 2013-02-14 17:21:48
Tagged date                              : UTC 2013-02-14 17:21:51

Audio language                           : English

IMDB link:                                 http://www.imdb.com/title/tt0446755/

Subtitles included                       : Romanian

Please seed at least 1,5:1. This way this torrent has a chance to survive !

Thanks. Enjoy !!!             						
The Painted Veil [2006] 720p BRRip H264 AC3 - CODY/Cover.jpg 411.928 KB
The Painted Veil [2006] 720p BRRip H264 AC3 - CODY/Info_by_Cody.txt 7.858 KB
The Painted Veil [2006] 720p BRRip H264 AC3 - CODY/The Painted Veil [2006] 720p BRRip H264 AC3 - CODY.mp4 1.941 GB
Gathering some info...

Register and log in Isohunt and see no captcha anymore!

4000 symbols left
Hash 96eeef2b0b0fb9d1d84338b7c1a15763cee90fbd

Related torrents for "The Painted Veil [2006] 720p BRRip H264 AC3 - CODY"

Torrent search:

2006 h264 hd bd