Deathly Impact 2010 DVDrip English Skandale

Size 1.628 GB   0 seeders     Added 2013-02-21 03:20:02

Stream torrent
Starting‥ You need BitLord! Get it from BitLord.com
To download or stream you need BitLord. Visit them at BitLord.com
							Verenigde Staten
Actie / Thriller
95 minuten
geregisseerd door Robert Kurtzman
met Sean Patrick Flanery, Joe Pantoliano en Carmen Serano
'Deadly Impact' volgt keiharde agent Thomas Armstrong, wiens leven echter ruw werd verstoord toen hij het hulpeloze doelwit was van een moordend meesterbrein. Terug naar huis, voegt Armstrong zich bij de FBI om wraak te zoeken en het helpen opsporen van dezelfde moordenaar die zijn bestaan bedreigt, maar dit keer is de moordenaar terug om te terroriseren. Niet alleen om een enkel persoon, maar de hele stad. In een spannende race tegen de klok, moet Armstrong een stapje voor proberen te blijven en de gek die 80 bommen heeft geplaast te pakken, voordat de tijd opraakt, en er onschuldige slachtoffers vallen...
A police officer with a painful past returns home to help the FBI track down a mastermind assassin.http://www.imdb.com/title/tt1082577/
General
Complete name : A:\Skandale\Deathly Impact 2010 DVDrip English Skandale\Deathly Impact 2010.avi
Format : AVI
Format/Info : Audio Video Interleave
File size : 1.52 GiB
Duration : 1h 32mn
Overall bit rate : 2 348 Kbps
Video
ID : 0
Format : MPEG-4 Visual
Format profile : Simple@L3
Format settings, BVOP : No
Format settings, QPel : No
Format settings, GMC : No warppoints
Format settings, Matrix : Default (H.263)
Codec ID : XVID
Codec ID/Hint : XviD
Duration : 1h 32mn
Bit rate : 1 889 Kbps
Width : 720 pixels
Height : 304 pixels
Display aspect ratio : 2.35:1
Frame rate : 25.000 fps
Color space : YUV
Chroma subsampling : 4:2:0
Bit depth : 8 bits
Scan type : Progressive
Bits/(Pixel*Frame) : 0.345
Stream size : 1.22 GiB (80%)
Writing library : XviD 1.1.2 (UTC 2006-11-01)
Audio
ID : 1
Format : AC-3
Format/Info : Audio Coding 3
Mode extension : CM (complete main)
Codec ID : 2000
Duration : 1h 32mn
Bit rate mode : Constant
Bit rate : 448 Kbps
Channel(s) : 6 channels
Channel positions : Front: L C R, Side: L R, LFE
Sampling rate : 48.0 KHz
Stream size : 296 MiB (19%)
Alignment : Aligned on interleaves
Interleave, duration : 32 ms (0.80 video frame)
						
Deathly Impact 2010 DVDrip English Skandale/Deathly Impact 2010.avi 1.628 GB
Deathly Impact 2010 DVDrip English Skandale/Cover/Deadly-Impact-2009-Front-Cover-37294.jpg 46.279 KB
Deathly Impact 2010 DVDrip English Skandale/Cover/flyer.jpg 33.678 KB
Gathering some info...

Register and log in Isohunt and see no captcha anymore!

4000 symbols left
Hash c2bb4eec748ba27f85b339b19a6a23e69cdfef32