imdb
rating

5.3
Astérix and Obélix: God Save Britannia

Astérix and Obélix: God Save Britannia (2012)

Adventure, Comedy, Family

Full description
quality   x264 hd bd fullhd dvdrip

Asterix And Obelix God Save Britannia [2012] BRRip x264 AAC-V3nom

Size 319.128 MB   0 seeders     Added 2013-02-21 06:16:01

Stream torrent
Starting‥ You need BitLord! Get it from BitLord.com
To download or stream you need BitLord. Visit them at BitLord.com
[img]image[/img]

[b][size=200][color=black]PLOT[/color][/size][/b]

[code]Asterix crosses the channel to help second-cousin Anticlimax 
face down Julius Caesar and invading Romans. [/code]

[b][size=200][color=black]IMDB[/color][/size][/b]

[code]http://www.imdb.com/title/tt1597522/[/code]

[b][size=200][color=black]MOVIE INFO[/color][/size][/b]

[code]Asterix And Obelix God Save Britannia [2012] BRRip x264 AAC-V3nom

Format                                   : MPEG-4
Format profile                           : Base Media / Version 2
Codec ID                                 : mp42
File size                                : 301 MiB
Duration                                 : 1h 50mn
Overall bit rate mode                    : Variable
Overall bit rate                         : 382 Kbps
Encoded date                             : UTC 2013-02-21 09:53:10
Tagged date                              : UTC 2013-02-21 10:28:33

Video
ID                                       : 1
Format                                   : AVC
Format/Info                              : Advanced Video Codec
Format profile                           : Main@L2.1
Format settings, CABAC                   : Yes
Format settings, ReFrames                : 4 frames
Codec ID                                 : avc1
Codec ID/Info                            : Advanced Video Coding
Duration                                 : 1h 50mn
Bit rate mode                            : Variable
Bit rate                                 : 280 Kbps
Width                                    : 640 pixels
Height                                   : 256 pixels
Display aspect ratio                     : 2.40:1
Original display aspect ratio            : 2.40:1
Frame rate mode                          : Variable
Frame rate                               : 23.976 fps
Minimum frame rate                       : 23.810 fps
Maximum frame rate                       : 24.390 fps
Color space                              : YUV
Chroma subsampling                       : 4:2:0
Bit depth                                : 8 bits
Scan type                                : Progressive
Bits/(Pixel*Frame)                       : 0.071
Stream size                              : 221 MiB (73%)
Writing library                          : x264 core 112


Audio
ID                                       : 2
Format                                   : AAC
Format/Info                              : Advanced Audio Codec
Format profile                           : LC
Codec ID                                 : 40
Duration                                 : 1h 50mn
Bit rate mode                            : Variable
Bit rate                                 : 96.0 Kbps
Maximum bit rate                         : 175 Kbps
Channel(s)                               : 2 channels
Channel positions                        : Front: L R
Sampling rate                            : 48.0 KHz
Compression mode                         : Lossy
Delay relative to video                  : 83ms
Stream size                              : 75.7 MiB (25%)
Language                                 : French
Encoded date                             : UTC 2013-02-21 09:53:10
Tagged date                              : UTC 2013-02-21 10:28:28[/code]

[b][size=200][color=black]SOURCE[/color][/size][/b]

[code]Asterix And Obelix God Save Britannia 2012 720p BRRIP x264 - UPX(Thanks)[/code]

[b][size=200][color=black]SCREENSHOTS[/color][/size][/b]

[img]image[/img]

[img]image[/img][img]image[/img]		
Asterix And Obelix God Save Britannia [2012] BRRip x264 AAC-V3nom/Subs/Asterix And Obelix God Save Britannia [2012] BRRip x264 AAC-V3nom [Eng].srt 94.358 KB
Asterix And Obelix God Save Britannia [2012] BRRip x264 AAC-V3nom/Subs/Asterix And Obelix God Save Britannia [2012] BRRip x264 AAC-V3nom [Cro].srt 86.303 KB
Asterix And Obelix God Save Britannia [2012] BRRip x264 AAC-V3nom/Torrent Download Site's/Torrent downloaded from tracker.Btarena.org.txt 43 B
Gathering some info...

Register and log in Isohunt and see no captcha anymore!

4000 symbols left
Hash 1381d2e79c851d8acebb5a671bc7beba2f93a0d0

Related torrents for "Asterix And Obelix God Save Britannia [2012] BRRip x264 AAC-V3nom"

Torrent search:

x264 2012 bd