Boot.Tracks.2012.BDRip.XVID.AC3.HQ.Hive-CM8

Size 1.482 GB   3 seeders     Added 2013-02-21 10:38:52

Stream torrent
Starting‥ You need BitLord! Get it from 1BitLord.com
To download or stream you need BitLord. Visit them at BitLord.com
							Boot Tracks 2012 BDRip XVID AC3 HQ Hive-CM8
Format : AVI
Format/Info : Audio Video Interleave
File size : 1.38 GiB
Duration : 1h 31mn
Overall bit rate : 2 156 Kbps
Writing application : Nandub v1.0rc2
Writing library : Nandub build 1853/release
Video
ID : 0
Format : MPEG-4 Visual
Format profile : Advanced Simple@L5
Format settings, BVOP : 1
Format settings, QPel : Yes
Format settings, GMC : No warppoints
Format settings, Matrix : Default (H.263)
Muxing mode : Packed bitstream
Codec ID : XVID
Codec ID/Hint : XviD
Duration : 1h 31mn
Bit rate : 1 699 Kbps
Width : 720 pixels
Height : 400 pixels
Display aspect ratio : 16:9
Frame rate : 23.976 fps
Color space : YUV
Chroma subsampling : 4:2:0
Bit depth : 8 bits
Scan type : Progressive
Compression mode : Lossy
Bits/(Pixel*Frame) : 0.246
Stream size : 1.09 GiB (79%)
Writing library : XviD 1.2.1 (UTC 2008-12-04)
Audio
ID : 1
Format : AC-3
Format/Info : Audio Coding 3
Mode extension : CM (complete main)
Format settings, Endianness : Big
Codec ID : 2000
Duration : 1h 31mn
Bit rate mode : Constant
Bit rate : 448 Kbps
Channel(s) : 6 channels
Channel positions : Front: L C R, Side: L R, LFE
Sampling rate : 48.0 KHz
Bit depth : 16 bits
Compression mode : Lossy
Delay relative to video : 28ms
Stream size : 294 MiB (21%)
Alignment : Split accross interleaves
Interleave, duration : 42 ms (1.00 video frame)
Interleave, preload duration : 500 msScreens:
						
Boot.Tracks.2012.BDRip.XVID.AC3.HQ.Hive-CM8/Boot.Tracks.2012.BDRip.XVID.AC3.HQ.Hive-CM8.avi 1.482 GB
Boot.Tracks.2012.BDRip.XVID.AC3.HQ.Hive-CM8/www.RARBG.com.txt 45 B
Gathering some info...

Register and log in Isohunt and see no captcha anymore!

4000 symbols left
Hash bda84a5f72bcf95cc351614111d23e1a718aa81d