imdb
rating

5.7
Tribute

Tribute (2009)

Drama, Horror, Romance

Full description
quality   dvdrip x264 hdtv hd

Luke Kelly - A Tribute [The Dubliners] [RTE Ireland] HQ PDTV x264 AC3 DeViL303

Size 579.481 MB   1 seeders     Added 2013-02-21 11:24:26

Stream torrent
Starting‥ You need BitLord! Get it from BitLord.com
To download or stream you need BitLord. Visit them at BitLord.com
Luke Kelly - A Tribute Documentary [The Dubliners] [RTE Ireland] HQ PDTV x264 AC3 DeViL303
Complete name                            : Luke Kelly - A Tribute Documentary [The Dubliners] [RTE Ireland] HQ PDTV x264 AC3 DeViL303.mkv
Format                                   : Matroska
Format version                           : Version 1
File size                                : 553 MiB
Duration                                 : 51mn 36s
Overall bit rate mode                    : Variable
Overall bit rate                         : 1 497 Kbps
Encoded date                             : UTC 2013-02-21 12:47:40
Writing application                      : mkvmerge v2.5.3 (Boogie) built on Mar  7 2009 15:00:41
Writing library                          : libebml v0.7.7 + libmatroska v0.8.1
Video
ID                                       : 1
Format                                   : AVC
Format/Info                              : Advanced Video Codec
Format profile                           : High@L3.0
Format settings, CABAC                   : Yes
Format settings, ReFrames                : 3 frames
Codec ID                                 : V_MPEG4/ISO/AVC
Duration                                 : 51mn 36s
Bit rate mode                            : Variable
Bit rate                                 : 1 303 Kbps
Maximum bit rate                         : 12.0 Mbps
Width                                    : 720 pixels
Height                                   : 576 pixels
Display aspect ratio                     : 16:9
Original display aspect ratio            : 5:4
Frame rate mode                          : Constant
Frame rate                               : 25.000 fps
Standard                                 : PAL
Color space                              : YUV
Chroma subsampling                       : 4:2:0
Bit depth                                : 8 bits
Scan type                                : Progressive
Bits/(Pixel*Frame)                       : 0.126
Stream size                              : 471 MiB (85%)
Writing library                          : x264 core 93 r1542M 5b86182
Default                                  : Yes
Forced                                   : No
Audio
ID                                       : 2
Format                                   : AC-3
Format/Info                              : Audio Coding 3
Mode extension                           : CM (complete main)
Format settings, Endianness              : Big
Codec ID                                 : A_AC3
Duration                                 : 51mn 36s
Bit rate mode                            : Constant
Bit rate                                 : 192 Kbps
Channel(s)                               : 2 channels
Channel positions                        : Front: L R
Sampling rate                            : 48.0 KHz
Bit depth                                : 16 bits
Compression mode                         : Lossy
Stream size                              : 70.9 MiB (13%)
Default                                  : Yes
Forced                                   : No		
Luke Kelly - A Tribute [The Dubliners] [RTE Ireland] HQ PDTV x264 AC3 DeViL303/Luke Kelly - A Tribute - Documentary [The Dubliners] [RTE Ireland] HQ PDTV x264 AC3 DeViL303.mkv 579.353 MB
Luke Kelly - A Tribute [The Dubliners] [RTE Ireland] HQ PDTV x264 AC3 DeViL303/Luke Kelly - A Tribute - Documentary [The Dubliners] [RTE Ireland] HQ PDTV x264 AC3 DeViL303.jpg 124.272 KB
Luke Kelly - A Tribute [The Dubliners] [RTE Ireland] HQ PDTV x264 AC3 DeViL303/Luke Kelly - A Tribute - Documentary [The Dubliners] [RTE Ireland] HQ PDTV x264 AC3 DeViL303.txt 3.888 KB
Gathering some info...

Register and log in Isohunt and see no captcha anymore!

4000 symbols left
Hash bae9fa729db255ec8760d348c4f863c4b5261c7a

Related torrents for "Luke Kelly - A Tribute [The Dubliners] [RTE Ireland] HQ PDTV x264 AC3 DeViL303"

Torrent search:

x264 hdtv