Jimmys Winnin Matches GAA [RTE Ireland] HQ PDTV x264 AC3 DeViL303

Size 588.218 MB   0 seeders     Added 2013-02-21 14:22:54

Stream torrent
Starting‥ You need BitLord! Get it from 1BitLord.com
To download or stream you need BitLord. Visit them at BitLord.com
Jimmys Winnin Matches GAA [RTE Ireland] HQ PDTV x264 AC3 DeViL303
Donegal fans still high on the success of last year’s All-Ireland title can relive it one more time by tuning into ‘Jimmy’s Winnin’ Matches’ on RTE One tonight. Here’s a taste of what you can expect.
It seems like longer than three months since Donegal confounded the critics and conquered all-comers en route to one of the most comprehensive All-Ireland successes in recent years and although they celebrated long and hard in the hills afterwards, there won’t be many who will miss a documentary charting the path to glory of the Tír Chonaill men on RTE One tonight.
The documentary features unseen behind the scenes footage with the team, match highlights and interviews with players, GAA managers, sports journalists and pundits and also includes a nod to the song that inspired the title and garnered 1.3 million YouTube hits, Rory Gallagher’s ‘Jimmy’s Winning Matches’.
Mayo fans mightn’t be too fond of having another look at the teaser clip above – it’s basically slow motion footage of the start of last year’s showpiece – but if the documentary makers can do justice to what was an amazing year for the men in green and gold then it should be well worth a watch.
file info:
Complete name                            : Jimmys Winnin Matches GAA [RTE Ireland] HQ PDTV x264 AC3 DeViL303.mkv
Format                                   : Matroska
Format version                           : Version 1
File size                                : 561 MiB
Duration                                 : 52mn 23s
Overall bit rate mode                    : Variable
Overall bit rate                         : 1 497 Kbps
Encoded date                             : UTC 2013-02-21 16:02:29
Writing application                      : mkvmerge v2.5.3 (\'Boogie\') built on Mar  7 2009 15:00:41
Writing library                          : libebml v0.7.7 + libmatroska v0.8.1
Video
ID                                       : 1
Format                                   : AVC
Format/Info                              : Advanced Video Codec
Format profile                           : High@L3.0
Format settings, CABAC                   : Yes
Format settings, ReFrames                : 3 frames
Codec ID                                 : V_MPEG4/ISO/AVC
Duration                                 : 52mn 23s
Bit rate mode                            : Variable
Bit rate                                 : 1 303 Kbps
Maximum bit rate                         : 12.0 Mbps
Width                                    : 720 pixels
Height                                   : 576 pixels
Display aspect ratio                     : 16:9
Original display aspect ratio            : 5:4
Frame rate mode                          : Constant
Frame rate                               : 25.000 fps
Standard                                 : PAL
Color space                              : YUV
Chroma subsampling                       : 4:2:0
Bit depth                                : 8 bits
Scan type                                : Progressive
Bits/(Pixel*Frame)                       : 0.126
Stream size                              : 478 MiB (85%)
Writing library                          : x264 core 93 r1542M 5b86182
Default                                  : Yes
Forced                                   : No
Audio
ID                                       : 2
Format                                   : AC-3
Format/Info                              : Audio Coding 3
Mode extension                           : CM (complete main)
Format settings, Endianness              : Big
Codec ID                                 : A_AC3
Duration                                 : 52mn 23s
Bit rate mode                            : Constant
Bit rate                                 : 192 Kbps
Channel(s)                               : 2 channels
Channel positions                        : Front: L R
Sampling rate                            : 48.0 KHz
Bit depth                                : 16 bits
Compression mode                         : Lossy
Stream size                              : 72.0 MiB (13%)
Default                                  : Yes
Forced                                   : No		
Jimmys Winnin Matches GAA [RTE Ireland] HQ PDTV x264 AC3 DeViL303/Jimmys Winnin Matches GAA [RTE Ireland] HQ PDTV x264 AC3 DeViL303.mkv 588.167 MB
Jimmys Winnin Matches GAA [RTE Ireland] HQ PDTV x264 AC3 DeViL303/Jimmys Winnin Matches GAA [RTE Ireland] HQ PDTV x264 AC3 DeViL303.jpg 46.983 KB
Jimmys Winnin Matches GAA [RTE Ireland] HQ PDTV x264 AC3 DeViL303/Jimmys Winnin Matches GAA [RTE Ireland] HQ PDTV x264 AC3 DeViL303.nfo 4.289 KB
Gathering some info...

Register and log in Isohunt and see no captcha anymore!

4000 symbols left
Hash 52bc03c09465bb226d35535cb197677c171c7a1e