58th Idea Filmfare Awards (2013) Red Carpet & Main Event DTHRip XviD 2CD [Team Jaffa].avi

Size 1.546 GB   0 seeders     Added 2013-02-21 14:39:29

Stream torrent
Starting‥ You need BitLord! Get it from 1BitLord.com
To download or stream you need BitLord. Visit them at BitLord.com
							Quote:
General
Format : AVI
Format/Info : Audio Video Interleave
File size : 1.44 GiB
Duration : 2h 56mn
Overall bit rate : 1 168 Kbps
Video
ID : 0
Format : MPEG-4 Visual
Format profile : Advanced Simple@L5
Format settings, BVOP : 2
Format settings, QPel : No
Format settings, GMC : No warppoints
Format settings, Matrix : Default (H.263)
Codec ID : XVID
Codec ID/Hint : XviD
Duration : 2h 56mn
Bit rate : 1 114 Kbps
Width : 720 pixels
Height : 400 pixels
Display aspect ratio : 16:9
Frame rate : 25.000 fps
Color space : YUV
Chroma subsampling : 4:2:0
Bit depth : 8 bits
Scan type : Progressive
Compression mode : Lossy
Bits/(Pixel*Frame) : 0.155
Stream size : 1.37 GiB (95%)
Writing library : XviD 1.2.1 (UTC 2008-12-04)
Audio
ID : 1
Format : MPEG Audio
Format version : Version 2
Format profile : Layer 3
Mode : Joint stereo
Mode extension : MS Stereo
Codec ID : 55
Codec ID/Hint : MP3
Duration : 2h 56mn
Bit rate mode : Constant
Bit rate : 48.0 Kbps
Channel(s) : 2 channels
Sampling rate : 22.05 KHz
Compression mode : Lossy
Stream size : 60.6 MiB (4%)
Alignment : Aligned on interleaves
Interleave, duration : 160 ms (4.00 video frames)
Interleave, preload duration : 209 ms
Title : 2cd audio
58th Idea Filmfare Awards (2013) Red Carpet & Main Event DTHRip XviD 2CD [Team Jaffa].avi 1.546 GB
Gathering some info...

Register and log in Isohunt and see no captcha anymore!

4000 symbols left
Hash fc09e620b2ab464373b720a2498b2106bbb88e51

Related torrents for "58th Idea Filmfare Awards (2013) Red Carpet & Main Event DTHRip XviD 2CD [Team Jaffa].avi"

Torrent search:

hdtv 2013