Peter Kay: Live & Back on Nights

Peter Kay: Live & Back on Nights (2012)

Comedy

Full description
quality   x264 hd bd h264 dvdrip

Peter Kay - Live And Back On Nights (2012) 720p MKV x264 AC3 [Pioneer].1.mkv

Size 1.399 GB   0 seeders     Added 2013-02-21 14:57:31

Stream torrent
Starting‥ You need BitLord! Get it from 1BitLord.com
To download or stream you need BitLord. Visit them at BitLord.com
							
He’s back! After the biggest-selling stand-up DVD of 2011, Peter Kay is back with even more brand-new live comedy taken from his Guinness world record breaking eighteen-month tour across the UK.
We also take a unique and often hilarious look behind the scenes at life on the road as Peter reveals how he created his mammoth tour, playing 140 shows to 1.2 million people, officially making it one of the most successful stand-up comedy tours of all time.
Includes over 55 minutes of new live stand-up. 
General
Unique ID: 310541704260304212121360146184563092005 (0xE9A0281EE8139A26444D9F8F40DC6A25)
Complete name: D:\Peter Kay - Live And Back On Nights (2012) 720p MKV x264 AC3 [Pioneer].1.mkv
Format: Matroska
Format version: Version 2
File size: 1.30 GiB
Duration: 1h 33mn
Overall bit rate: 1 997 Kbps
Writing application: HandBrake 0.9.8
Writing library: libmkv 0.6.5
Video
ID: 1
Format: AVC
Format/Info: Advanced Video Codec
Format profile: High@L4.0
Format settings, CABAC: Yes
Format settings, ReFrames: 5 frames
Codec ID: V_MPEG4/ISO/AVC
Duration: 1h 33mn
Bit rate: 1 800 Kbps
Width: 1 280 pixels
Height: 720 pixels
Display aspect ratio: 16:9
Frame rate mode: Constant
Frame rate: 25.000 fps
Color space: YUV
Chroma subsampling: 4:2:0
Bit depth: 8 bits
Scan type: Progressive
Bits/(Pixel*Frame): 0.078
Stream size: 1.15 GiB (88%)
Writing library: x264 core 120
Language: English
Default: Yes
Forced: No
Color primaries: BT.709
Transfer characteristics: BT.709
Matrix coefficients: BT.709
Audio
ID: 2
Format: AC-3
Format/Info: Audio Coding 3
Mode extension: CM (complete main)
Format settings, Endianness: Big
Codec ID: A_AC3
Duration: 1h 33mn
Bit rate mode: Constant
Bit rate: 192 Kbps
Channel(s): 2 channels
Channel positions: Front: L R
Sampling rate: 48.0 KHz
Bit depth: 16 bits
Compression mode: Lossy
Stream size: 128 MiB (10%)
Language: English
Default: Yes
Forced: No
						
Peter Kay - Live And Back On Nights (2012) 720p MKV x264 AC3 [Pioneer].1.mkv 1.399 GB
Gathering some info...

Register and log in Isohunt and see no captcha anymore!

4000 symbols left
Hash 57f97bb2bfaccf7029a5ced7311e2be28585cf99

Related torrents for "Peter Kay - Live And Back On Nights (2012) 720p MKV x264 AC3 [Pioneer].1.mkv"

Torrent search:

x264 hd 2012