imdb
rating

5.9
The Oranges

The Oranges (2011)

Comedy, Drama, Romance

Full description
quality   bd dvdrip x264 hd fullhd

The Oranges 2011 REPACK DVDRip XviD-PHOBOS

Size 741.862 MB   0 seeders     Added 2013-02-21 19:31:32

Stream torrent
Starting‥ You need BitLord! Get it from 1BitLord.com
10
To download or stream you need BitLord. Visit them at BitLord.com
Summary

The enduring friendship between the Walling and Ostroff families is tested when
Nina, the prodigal Ostroff daughter, returns home for the holidays after a five-year
absence and enters into an affair with David, head of the Walling family

Tech Info

Video
ID: 0
Format: MPEG-4 Visual
Format profile: Advanced Simple@L5
Format settings, BVOP: 2
Format settings, QPel: No
Format settings, GMC: No warppoints
Format settings, Matrix: Default (H.263)
Codec ID: XVID
Codec ID/Hint: XviD
Duration: 1h 26mn
Bit rate: 999 Kbps
Width: 640 pixels
Height: 352 pixels
Display aspect ratio: 16:9
Frame rate: 25.000 fps
Color space: YUV
Chroma subsampling: 4:2:0
Bit depth: 8 bits
Scan type: Progressive
Compression mode: Lossy
Bits/(Pixel*Frame): 0.177
Stream size: 620 MiB (89%)
Writing library: XviD 64

Audio
ID: 1
Format: MPEG Audio
Format version: Version 1
Format profile: Layer 3
Mode: Joint stereo
Mode extension: MS Stereo
Codec ID: 55
Codec ID/Hint: MP3
Duration: 1h 26mn
Bit rate mode: Variable
Bit rate: 116 Kbps
Nominal bit rate: 128 Kbps
Channel(s): 2 channels
Sampling rate: 48.0 KHz
Compression mode: Lossy
Stream size: 72.0 MiB (10%)
Alignment: Aligned on interleaves
Interleave, duration: 24 ms (0.60 video frame)
Interleave, preload duration: 72 ms
Title: audio
Writing library: LAME3.99r

Group Info

Our mission is to provide the scene with decent quality rips of old TV classics

Greets fly out to ARCHiViST, GERUDO, INQUISITION, RedBlade, REWARD, and everyone
that helped us; you know who you guys are!

Looking for decent affil sites (no rented/colo) and rippers/cappers

Ask around for us

 
image 
image 
image		
The Oranges 2011 REPACK DVDRip XviD-PHOBOS/Sample/sample-the.oranges.2011.repack.dvdrip.xvid-phobos.avi 7.58 MB
The Oranges 2011 REPACK DVDRip XviD-PHOBOS/The.Oranges.2011.REPACK.DVDRip.XviD-PHOBOS.avi 734.273 MB
The Oranges 2011 REPACK DVDRip XviD-PHOBOS/Torrent Downloaded From ExtraTorrent.com.txt 339 B
Gathering some info...

Register and log in Isohunt and see no captcha anymore!

4000 symbols left
Hash 1f8e1a17e7e3365644e426688a41eb451594d3d0

Related torrents for "The Oranges 2011 REPACK DVDRip XviD-PHOBOS"

Torrent search:

dvdrip 2011