Mr.Singh.Mrs.Mehta.2010.X264.AAC.RRG.DADA.DBBIANS.Com.mp4

Size 676.036 MB   0 seeders     Added 2013-02-22 07:31:06

Stream torrent
Starting‚Ä• You need BitLord! Get it from 1BitLord.com
To download or stream you need BitLord. Visit them at BitLord.com
Cover 

 
image.html

Screens

 
image.html


 
http://www.imdb.com/title/tt1646217/

General

Format                           : MP4 Video
File size                        : 645 MiB
Duration                         : 1h 56mn
Overall bit rate                 : 775 Kbps


Video
Format                           : AVC
Format/Info                      : Advanced Video Codec
Format profile                   : Main@L3.0
Format settings, CABAC           : Yes
Format settings, ReFrames        : 3 frames
Duration                         : 1h 56mn
Bit rate                         : 641 Kbps
Width                            : 854 pixels
Height                           : 480 pixels
Display aspect ratio             : 16:9
Frame rate mode                  : Constant
Frame rate                       : 24.000 fps
Color space                      : YUV
Chroma subsampling               : 4:2:0
Bit depth                        : 8 bits
Scan type                        : Progressive
Bits/(Pixel*Frame)               : 0.065
Stream size                      : 533 MiB (83%)

Audio
Format                           : AAC
Format/Info                      : Advanced Audio Codec
Format version                   : Version 4
Format profile                   : LC
Format settings, SBR             : No
Duration                         : 1h 56mn
Bit rate                         : 127 Kbps
Channel(s)                       : 2 channels
Channel positions                : Front: L R
Sampling rate                    : 44.1 KHz
Bit depth                        : 16 bits
Stream size                      : 105 MiB (16%)



Mr. Singh Mrs. Mehta Cast & Crew:

    Banner
    Crossover Joint Ventures
    Medient
    Tarlac

    Release Date
    25 Jun 2010

    Genre
    Romance

    Producer
    Tutu Sharma
    Manu S Kumaran

    Star Cast
    Prashant Narayanan.... Ashwin Mehta
    Aruna Shields.... Neera Singh
    Naved Aslam.... Karan Singh
    Lucy Hassan.... Sakhi Mehta

    Story / Writers
    Pravesh Bhardwaj

    Costume Designers
    Darshan Jalan
    Isha Ahluwalia

    Censor Details:

    Censor Dates
    Not Available.

    Reels
    Not Available.

    Length in metres
    0.0

Music Director

    Ustaad Shujaat Husain Khan
    Shaarang Dev Pandit

Color
C
Language
Hindi
Director

    Pravesh Bhardwaj

Singers

    K K
    Shreya Ghoshal
    Richa Sharma
    Ustaad Shujaat Husain Khan

Lyricist

    Amitabh Varma

Screenplay

    Pravesh Bhardwaj

Production Labs
Adlabs Films Ltd
Publicity Designers

    Deven Kotak
    Yogesh Ishwar
    Brainstorm

    Shooting Location(City & Country)
    London
    United Kingdom

    Sound
    Rakesh Ranjan

    Music Company
    Junglee Music

 Karan and Neera are happily married living in London. At least that's what Neera thinks. Till she discovers Karan is having an affair. Ashwin is a painter hoping to strike it big someday. Sakhi, his wife is a high flying executive. Ashwin is unaware of Sakhi's affair with Karan till Neera knocks on his door. If the world was perfect they would have never met. Mr Singh/Mrs Mehta is a journey of a relationship that defies the moral fabric of Indian middle class values... A journey where lines between right and wrong blur... A journey that has no boundaries 

		
Mr.Singh.Mrs.Mehta.2010.X264.AAC.RRG.DADA.DBBIANS.Com.mp4 676.036 MB
Gathering some info...

Register and log in Isohunt and see no captcha anymore!

4000 symbols left
Hash 7f2b701ec7354b1964cbfc6b2007807ce73175a6