Pádraic Nally [RTE Ireland] HDTV 720p x264 AC3 DeViL303

Size 972.47 MB   2 seeders     Added 2013-02-22 08:03:21

Stream torrent
Starting‥ You need BitLord! Get it from BitLord.com
To download or stream you need BitLord. Visit them at BitLord.com
Pádraic Nally After The Headlines[RTE Ireland] HDTV 720p x264 AC3 DeViL303

In October 2004, John Ward - a 42-year-old father of 11, a small-time criminal, and a Traveller - was beaten 20 times and shot twice resulting in his death.
Padraig Nally, a 61-year-old farmer from Mayo, was tried for his murder and found guilty of the lesser charge of manslaughter.
On 11th November 2005, he was sentenced to six years in prison, then he was freed in October 2006 after he was acquitted of the manslaughter.*
The case - Nally admitted to killing John Ward - divided the country and many racist jibes were aimed at the family of the victim, while the media heaped insult on top of the man's death by (in many cases) excusing the killer's behaviour. Padraig Nally testified that he lived in fear of the victim and attacked John Ward while
he trespassed on the farmer's property.
Ann Costello, a community worker with the Galway Traveller Movement, was interviewed by the Sunday Business Post after Nally's second acquittal. She said,
''Travellers are very concerned about this verdict and feel powerless. Political leadership has been absent on this issue, and it is time Travellers got reassurance
- at senior government level - that they will be afforded the same protection as every other citizen.”

* (Padraig Nally was freed in 2006 after the Court of Criminal Appeal ruled that Mr Justice Paul Carney, the high court judge in the original trial, erred in law by failing to allow
the jury the opportunity to return a verdict of not guilty).


File info:
Complete name                            : Pádraic Nally [RTE Ireland] HDTV 720p x264 AC3 DeViL303.mkv
Format                                   : Matroska
Format version                           : Version 1
File size                                : 927 MiB
Duration                                 : 51mn 55s
Overall bit rate mode                    : Variable
Overall bit rate                         : 2 497 Kbps
Encoded date                             : UTC 2013-02-22 02:12:52
Writing application                      : mkvmerge v2.5.3 ('Boogie') built on Mar  7 2009 15:00:41
Writing library                          : libebml v0.7.7 + libmatroska v0.8.1

Video
ID                                       : 1
Format                                   : AVC
Format/Info                              : Advanced Video Codec
Format profile                           : High@L4.0
Format settings, CABAC                   : Yes
Format settings, ReFrames                : 3 frames
Codec ID                                 : V_MPEG4/ISO/AVC
Duration                                 : 51mn 55s
Bit rate mode                            : Variable
Bit rate                                 : 2 303 Kbps
Maximum bit rate                         : 20.0 Mbps
Width                                    : 1 280 pixels
Height                                   : 720 pixels
Display aspect ratio                     : 16:9
Frame rate mode                          : Constant
Frame rate                               : 25.000 fps
Color space                              : YUV
Chroma subsampling                       : 4:2:0
Bit depth                                : 8 bits
Scan type                                : Progressive
Bits/(Pixel*Frame)                       : 0.100
Stream size                              : 838 MiB (90%)
Writing library                          : x264 core 93 r1542M 5b86182
Encoding settings                        : cabac=1 / ref=4 / deblock=1:-1:-1 / 
Default                                  : Yes
Forced                                   : No

Audio
ID                                       : 2
Format                                   : AC-3
Format/Info                              : Audio Coding 3
Mode extension                           : CM (complete main)
Format settings, Endianness              : Big
Codec ID                                 : A_AC3
Duration                                 : 51mn 55s
Bit rate mode                            : Constant
Bit rate                                 : 192 Kbps
Channel(s)                               : 2 channels
Channel positions                        : Front: L R
Sampling rate                            : 48.0 KHz
Bit depth                                : 16 bits
Compression mode                         : Lossy
Stream size                              : 71.3 MiB (8%)
Default                                  : Yes
Forced                                   : No


		
Pádraic Nally [RTE Ireland] HDTV 720p x264 AC3 DeViL303/Pádraic Nally [RTE Ireland] HDTV 720p x264 AC3 DeViL303.mkv 972.45 MB
Pádraic Nally [RTE Ireland] HDTV 720p x264 AC3 DeViL303/Pádraic Nally [RTE Ireland] HDTV 720p x264 AC3 DeViL303.jpg 15.334 KB
Pádraic Nally [RTE Ireland] HDTV 720p x264 AC3 DeViL303/Pádraic Nally [RTE Ireland] HDTV 720p x264 AC3 DeViL303.nfo 4.55 KB
Gathering some info...

Register and log in Isohunt and see no captcha anymore!

4000 symbols left
Hash 8ad0a37dfa0178219c4027d462e3abb12be47aac

Related torrents for "Pádraic Nally [RTE Ireland] HDTV 720p x264 AC3 DeViL303"

Torrent search:

x264 hdtv hd