imdb
rating

8.4
The Big Bang Theory

The Big Bang Theory (2007)

Comedy

Full description

The big bang theory_subs

Size 3.054 GB   0 seeders     Added 2013-02-22 14:47:47

Stream torrent
Starting‥ You need BitLord! Get it from BitLord.com
To download or stream you need BitLord. Visit them at BitLord.com
MediaInfo:
General
Complete name                            : D:The big bang theory_subsThe.Big.Bang.Theory.S06E01.avi
Format                                   : AVI
Format/Info                              : Audio Video Interleave
File size                                : 181 MiB
Duration                                 : 21mn 15s
Overall bit rate                         : 1 189 Kbps
Writing application                      : VirtualDubMod 1.5.10.3 | www.virtualdub-fr.org || (build 2550/release)
Writing library                          : VirtualDubMod build 2550/release

Video
ID                                       : 0
Format                                   : MPEG-4 Visual
Format profile                           : Advanced Simple@L5
Format settings, BVOP                    : 1
Format settings, QPel                    : No
Format settings, GMC                     : No warppoints
Format settings, Matrix                  : Default (H.263)
Codec ID                                 : XVID
Codec ID/Hint                            : XviD
Duration                                 : 21mn 15s
Bit rate                                 : 1 052 Kbps
Width                                    : 656 pixels
Height                                   : 368 pixels
Display aspect ratio                     : 16:9
Frame rate                               : 23.976 fps
Color space                              : YUV
Chroma subsampling                       : 4:2:0
Bit depth                                : 8 bits
Scan type                                : Progressive
Compression mode                         : Lossy
Bits/(Pixel*Frame)                       : 0.182
Stream size                              : 160 MiB (88%)
Writing library                          : XviD 1.2.1 (UTC 2008-12-04)

Audio
ID                                       : 1
Format                                   : MPEG Audio
Format version                           : Version 1
Format profile                           : Layer 3
Mode                                     : Joint stereo
Mode extension                           : MS Stereo
Codec ID                                 : 55
Codec ID/Hint                            : MP3
Duration                                 : 21mn 15s
Bit rate mode                            : Constant
Bit rate                                 : 128 Kbps
Channel(s)                               : 2 channels
Sampling rate                            : 48.0 KHz
Compression mode                         : Lossy
Stream size                              : 19.5 MiB (11%)
Alignment                                : Aligned on interleaves
Interleave, duration                     : 42 ms (1.00 video frame)
Interleave, preload duration             : 504 ms
Writing library                          : LAME3.98r
Encoding settings                        : -m j -V 4 -q 0 -lowpass 17 -b 128

		
The big bang theory_subs/The.Big.Bang.Theory.S06E01.avi 189.6 MB
The big bang theory_subs/The.Big.Bang.Theory.S06E01.eng.srt 31.826 KB
The big bang theory_subs/The.Big.Bang.Theory.S06E01.rus.srt 31.766 KB
Gathering some info...

Register and log in Isohunt and see no captcha anymore!

4000 symbols left
Hash f39fc7b9141258fdcbbb46e8da82431ce7009025

Related torrents for "The big bang theory_subs"