imdb
rating

6.9
Cruel Intentions

Cruel Intentions (1999)

Drama, Thriller, Romance

Full description
quality   hdtv x264 hd bd dvdrip dvdr fullhd

Cruel Intensions-720p MP4 AAC x264 BRRip 1999-CC

Size 2.949 GB   0 seeders     Added 2013-02-22 15:39:01

Stream torrent
Starting‥ You need BitLord! Get it from BitLord.com
To download or stream you need BitLord. Visit them at BitLord.com
							Cruel Intentions 1999 720p BRRip x264 MP4 AAC-CChttp://www.imdb.com/title/tt0139134/
-------------------------------------------------------------------------------------------------------------------------------------------------------Plot :
Kathryn makes a bet that her step-brother, Sebastian, won't be able to bed Annette (a virgin, who wants to wait until love). If he loses, Kathryn gets his Jaguar, if he wins, he gets Kathryn. 
-------------------------------------------------------------------------------------------------------------------------------------------------------
Language : English
Subs: Arabic, Bulgarian, Danish, Dutch, English, Finnish, French, Hebrew, Indonesian, Norwegian, Polish, Portuguese, Romanian, Servian, Slovenian, Spanish, Swedish, Turkish and Vietnamese.
-------------------------------------------------------------------------------------------------------------------------------------------------------Info
Source: Cruel.Intentions.1999.720p.Bluray.DTS.x264-RuDE Thanks!Sample and Screens included.General
Complete name : Cruel Intensions-720p MP4 AAC x264 BRRip 1999-CC.mp4
Format : MPEG-4
Format profile : Base Media
Codec ID : isom
File size : 2.71 GiB
Duration : 1h 37mn
Overall bit rate mode : Variable
Overall bit rate : 3 984 Kbps
Encoded date : UTC 2013-02-08 08:58:22
Tagged date : UTC 2013-02-08 08:58:22
Writing application : Yamb 2.1.0.0Video
ID : 1
Format : AVC
Format/Info : Advanced Video Codec
Format profile : High@L4.1
Format settings, CABAC : Yes
Format settings, ReFrames : 5 frames
Codec ID : avc1
Codec ID/Info : Advanced Video Coding
Duration : 1h 37mn
Bit rate : 3 641 Kbps
Maximum bit rate : 28.6 Mbps
Width : 1 280 pixels
Height : 692 pixels
Display aspect ratio : 1.85:1
Frame rate mode : Variable
Frame rate : 23.976 fps
Minimum frame rate : 19.048 fps
Maximum frame rate : 24.390 fps
Color space : YUV
Chroma subsampling : 4:2:0
Bit depth : 8 bits
Scan type : Progressive
Bits/(Pixel*Frame) : 0.171
Stream size : 2.45 GiB (90%)
Writing library : x264 core 112Audio
ID : 2
Format : AAC
Format/Info : Advanced Audio Codec
Format profile : LC
Codec ID : 40
Duration : 1h 37mn
Bit rate mode : Variable
Bit rate : 384 Kbps
Maximum bit rate : 652 Kbps
Channel(s) : 6 channels
Channel positions : Front: L C R, Side: L R, LFE
Sampling rate : 48.0 KHz
Compression mode : Lossy
Delay relative to video : 83ms
Stream size : 268 MiB (10%)
Encoded date : UTC 2013-02-08 09:01:02
Tagged date : UTC 2013-02-08 09:01:40
-------------------------------------------------------------------------------------------------------------------------------------------------------Screenshots :Click images for full size view
-------------------------------------------------------------------------------------------------------------------------------------------------------Enjoy...
						
Cruel Intensions-720p MP4 AAC x264 BRRip 1999-CC/Cruel Intensions-720p MP4 AAC x264 BRRip 1999-CC.mp4 2.913 GB
Cruel Intensions-720p MP4 AAC x264 BRRip 1999-CC/Sample/Sample.mp4 28.015 MB
Cruel Intensions-720p MP4 AAC x264 BRRip 1999-CC/Screens-Info/Cruel Intensions-720p MP4 AAC x264 BRRip 1999-CC.mp4_snapshot_00.03.54.png 1.147 MB
Gathering some info...

Register and log in Isohunt and see no captcha anymore!

4000 symbols left
Hash 36de6914730d0711e786f1ea8b0ffc994c5eb39f

Related torrents for "Cruel Intensions-720p MP4 AAC x264 BRRip 1999-CC"

Torrent search:

1999 x264 hd bd