Socrate (1970) Roberto Rossellini.avi

Size 1.566 GB   67 seeders     Added 2013-02-22 17:38:29

Stream torrent
Starting‥ You need BitLord! Get it from BitLord.com
To download or stream you need BitLord. Visit them at BitLord.com
							Socrate (1971) Roberto Rossellini [XviD - Italian Mp3] MIRCrew [TNT Village]
********************************************* 
Socrate (1971)
Paese 	Italia
Anno 	1971
Formato 	miniserie TV
Genere 	storico
Durata 	1h 53mn
Lingua originale 	italiano
Caratteristiche tecniche
Aspect ratio 	1.33:1
Colore 	colore
Audio 	sonoro
Crediti
Regia 	Roberto Rossellini
Soggetto 	da I dialoghi di Platone
Sceneggiatura 	Roberto Rossellini, Marcella Mariani
Fotografia 	Jorge Herrero Martin
Montaggio 	Alfredo Muschietti
Musiche 	Mario Nascimbene
Scenografia 	Giusto Puri Purini, Bernardo Ballester
Costumi 	Marcella De Marchis
Produttore 	RAI
Prima visione
Prima TV in italiano (gratuita)
Dal 	17 giugno 1971
Al 	20 giugno 1971
Rete televisiva 	Programma Nazionale (l’odierna Rai Uno)
 Jean Sylvère: Socrate
 Anne Caprile: Santippe
 Riccardo Palacios: Critone
 Bepy Mannajuolo: Apollodoro
 Manuel Angel Egea: Cebete
 Julio Morales: Antistene
Il film narra le vicende, personali e storiche, degli ultimi tempi della vita di Socrate, il famoso filosofo ateniese. Lo sfondo storico della narrazione coincide con quello che viene 
considerato il periodo del decadimento della Polis greca e della democrazia di Atene: la scena iniziale mostra l'abbattimento delle mura della città da parte degli Spartani, ormai vincitori 
della Guerra del Peloponneso, con la successiva istituzione del Governo dei Trenta tiranni (404 a.C.).
Nel contesto, dunque, di una città in subbuglio per la sconfitta e l'umiliazione subìte e in fermento per l'organizzazione delle contromosse militari per la liberazione (che porteranno alla 
caduta dei Trenta l'anno successivo all'instaurazione del Regime), viene presentata la figura di Socrate, ormai settantenne e impegnato ogni giorno nella sua ricerca filosofica con un 
nutrito seguito di giovani interessati alla sua persona. Nel corso del film vengono presentati molti stralci di alcuni dei famosi Dialoghi di Platone, che costituiscono probabilmente la 
fonte di informazioni e documenti più corposa e attendibile per la ricostruzione della figura di Socrate (che, come è noto, non ha mai scritto alcuna opera di suo pugno, coerentemente alla 
sua critica ai testi scritti come mezzo di diffusione della conoscenza): tra tali dialoghi vi sono sicuramente l'Ippia maggiore, l'Eutifrone, la Repubblica, il Critone, l'Apologia di 
Socrate, il Fedone e altri; vi sono anche alcune citazioni esplicite, da parte di un detrattore di Socrate, de "Le nuvole", la commedia di Aristofane in cui il filosofo viene descritto come 
un cialtrone, esperto di sofismi e di retorica, in grado di rendere sempre giusta la causa ingiusta. Tutti i riferimenti alle opere presenti nel film contribuiscono a dipingere la figura di 
Socrate in maniera abbastanza fedele a quella della tradizione e a delinearne, almeno a grandi linee, il pensiero e la filosofia: la consapevolezza della propria ignoranza come presupposto 
necessario per la ricerca della verità, il metodo socratico che si avvale del dialogo come mezzo per l'indagine filosofica, l'ironia e la maieutica come momenti del dialogo stesso, 
l'importanza della virtù nel raggiungimento della felicità, il disprezzo per il denaro, il potere e altri valori terreni, la contrapposizione ai Sofisti e al loro abuso della retorica come 
strumento per ostentare una falsa sapienza, la già citata critica della validità degli scritti e altri aspetti non meno importanti.
General
Complete name : Socrate (1970) Roberto Rossellini.avi
Format : AVI
Format/Info : Audio Video Interleave
File size : 1.46 GiB
Duration : 1h 53mn
Overall bit rate : 1 837 Kbps
Video
ID : 0
Format : MPEG-4 Visual
Format profile : Advanced Simple@L5
Format settings, BVOP : Yes
Format settings, QPel : No
Format settings, GMC : No warppoints
Format settings, Matrix : Default (MPEG)
Muxing mode : Packed bitstream
Codec ID : XVID
Codec ID/Hint : XviD
Duration : 1h 53mn
Bit rate : 1 744 Kbps
Width : 448 pixels
Height : 336 pixels
Display aspect ratio : 4:3
Frame rate : 25.000 fps
Color space : YUV
Chroma subsampling : 4:2:0
Bit depth : 8 bits
Scan type : Progressive
Bits/(Pixel*Frame) : 0.464
Stream size : 1.39 GiB (95%)
Title : Socrate (Roberto Rossellini, 1971)
Writing library : XviD 1.2.0.dev49
Audio
ID : 1
Format : MPEG Audio
Format version : Version 1
Format profile : Layer 3
Codec ID : 55
Codec ID/Hint : MP3
Duration : 1h 53mn
Bit rate mode : Variable
Bit rate : 82.1 Kbps
Nominal bit rate : 103 Kbps
Channel(s) : 1 channel
Sampling rate : 32.0 KHz
Stream size : 66.7 MiB (4%)
Alignment : Aligned on interleaves
Interleave, duration : 36 ms (0.90 video frame)
Interleave, preload duration : 126 ms
Title : Italiano
Writing library : LAME3.98b
Encoding settings : -m m -V 4 -q 0 -lowpass 16 --abr 103
Socrate (1970) Roberto Rossellini.avi 1.566 GB
Gathering some info...

Register and log in Isohunt and see no captcha anymore!

4000 symbols left
Hash 9a5836e3cd00f5fd2172023805a3920f67e8aa05

Related torrents for "Socrate (1970) Roberto Rossellini.avi"

Torrent search:

1970