imdb
rating

6.2
Knowing

Knowing (2009)

Action, Adventure, Drama, Mystery, Science Fiction, Thriller

Full description

Knowing (2009)1080p BDRip In[Hindi-Eng(Dts)]-DGrea8

Size 2.573 GB   0 seeders     Added 2013-02-22 19:01:33

Stream torrent
Starting‥ You need BitLord! Get it from 1BitLord.com
To download or stream you need BitLord. Visit them at BitLord.com
             Knowing (2009)1080p BDRip In[Hindi-Eng(Dts)]-DGrea8


Summary:-


In the fall of 1959, for a time capsule, students draw pictures of life as they imagine it will be in 50 years. Lucinda, an odd child who hears voices, swiftly writes a long string of numbers. In 2009, the capsule is opened; student Caleb Koestler gets Lucinda's "drawing" and his father John, an astrophysicist and grieving widower, takes a look. He discovers dates of disasters over the past 50 years with the number who died. Three dates remain, all coming soon. He investigates, learns of Lucinda, and looks for her family. He fears for his son, who's started to hear voices and who is visited by a silent stranger who shows him a vision of fire and destruction. What's going on?


Cast:-

Nicolas Cage............John Koestler
Chandler Canterbury.....Caleb Koestler
Rose Byrne..............Diana
Lara Robinson...........Abby / Lucinda
D.G. Maloney............The Stranger
Nadia Townsend..........Grace
Alan Hopgood............Reverend Koestler
Adrienne Pickering......Allison
Joshua Long.............Younger Caleb
Danielle Carter.........Miss Taylor (1959)
Alethea McGrath.........Miss Taylor (2009)
David Lennie............Principal Clark (1959)
Tamara Donnellan........Lucinda's Mother
Travis Waite............Lucinda's Father
Ben Mendelsohn..........Phil Beckman



Video & Audio Info.:-

Director: Alex Proyas
Writers: Ryne Douglas Pearson (screenplay), Juliet Snowden (screenplay)
Stars: Nicolas Cage, Chandler Canterbury, Rose Byrne
Release Date: 20 March 2009 (USA) 
Filming Locations: Camberwell High School, Camberwell, Melbourne, Victoria, Australia
Genres: Drama | Mystery | Sci-Fi | Thriller

Box Office
Budget: $50,000,000 (estimated)
Opening Weekend: £2,471,605 (UK) (27 March 2009)
Gross: $79,948,113 (USA) (3 July 2009)


Video
ID : 1
Format : AVC
Format/Info : Advanced Video Codec
Muxing mode : Header stripping
Codec ID : V_MPEG4/ISO/AVC
Duration : 2h 1mn
Bit rate : 1 858 Kbps
Width : 1 920 pixels
Height : 800 pixels
Frame rate : 24.000 fps
Bit depth : 8 bits
Scan type : Progressive
Stream size : 1.58 GiB (66%)

Audio #1
ID : 2
Format : DTS
Format/Info : Digital Theater Systems
Muxing mode : Header stripping
Codec ID : A_DTS
Duration : 2h 1mn
Bit rate mode : Constant
Bit rate : 755 Kbps
Channel(s) : 6 channels
Channel positions : Front: L C R, Side: L R, LFE
Sampling rate : 48.0 KHz
Bit depth : 24 bits
Compression mode : Lossy
Stream size : 656 MiB (27%)
Title : Dts
Language : English

Audio #2
ID : 3
Format : AC-3
Format/Info : Audio Coding 3
Mode extension : CM (complete main)
Muxing mode : Header stripping
Codec ID : A_AC3
Duration : 2h 1mn
Bit rate mode : Constant
Bit rate : 128 Kbps
Channel(s) : 2 channels
Channel positions : Front: L R
Sampling rate : 48.0 KHz
Bit depth : 16 bits
Compression mode : Lossy
Delay relative to video : 1s 14ms
Stream size : 111 MiB (5%)
Language : Hindi

Subtitle Languages : English


Screen Shoots:-

   
image
 
image
 
image
 
image
 
image


Note:--

 Check The Sample Video In This Torrent			
		
Knowing (2009)1080p BDRip In[Hindi-Eng(Dts)]-DGrea8/Knowing (2009)1080p BDRip In[Hindi-Eng(Dts)]-DGrea8.mkv 2.548 GB
Knowing (2009)1080p BDRip In[Hindi-Eng(Dts)]-DGrea8/Sample/1.jpg 147.564 KB
Knowing (2009)1080p BDRip In[Hindi-Eng(Dts)]-DGrea8/Sample/10.jpg 151.605 KB
Gathering some info...

Register and log in Isohunt and see no captcha anymore!

4000 symbols left
Hash 6dfc9c257d7d613244c9a9b801cdfac13807a120

Related torrents for "Knowing (2009)1080p BDRip In[Hindi-Eng(Dts)]-DGrea8"

Torrent search:

2009 english hindi fullhd bd