imdb
rating

6.9
Hitchcock

Hitchcock (2012)

Drama

Full description
quality   dvdrip x264 fullhd hd

Hitchcock 2012 WEBRip Xvid AC3-VoXHD

Size 1.421 GB   0 seeders     Added 2013-02-22 19:30:51

Stream torrent
Starting‥ You need BitLord! Get it from BitLord.com
To download or stream you need BitLord. Visit them at BitLord.com
 http://www.imdb.com/title/tt0975645/

Quote:
Video
ID                                       : 1
Format                                   : MPEG-4 Visual
Format profile                           : Advanced Simple@L5
Format settings, BVOP                    : No
Format settings, QPel                    : No
Format settings, GMC                     : No warppoints
Format settings, Matrix                  : Custom
Codec ID                                 : V_MS/VFW/FOURCC / XVID
Codec ID/Hint                            : XviD
Duration                                 : 1h 38mn
Bit rate                                 : 1 689 Kbps
Width                                    : 720 pixels
Height                                   : 304 pixels
Display aspect ratio                     : 2.35:1
Frame rate mode                          : Constant
Frame rate                               : 23.976 fps
Color space                              : YUV
Chroma subsampling                       : 4:2:0
Bit depth                                : 8 bits
Scan type                                : Progressive
Compression mode                         : Lossy
Bits/(Pixel*Frame)                       : 0.322
Stream size                              : 1.16 GiB (88%)
Writing library                          : XviD 1.2.1 (UTC 2008-12-04)
Default                                  : Yes
Forced                                   : No

Audio
ID                                       : 2
Format                                   : AC-3
Format/Info                              : Audio Coding 3
Mode extension                           : CM (complete main)
Format settings, Endianness              : Big
Codec ID                                 : A_AC3
Duration                                 : 1h 38mn
Bit rate mode                            : Constant
Bit rate                                 : 192 Kbps
Channel(s)                               : 2 channels
Channel positions                        : Front: L R
Sampling rate                            : 48.0 KHz
Bit depth                                : 16 bits
Compression mode                         : Lossy
Stream size                              : 136 MiB (10%)
Default                                  : Yes
Forced                                   : No

 
image 
image 
image 
image		
Hitchcock 2012 WEBRip Xvid AC3-VoXHD/Hitchcock.2012.WEBRip.Xvid.AC3-VoXHD.mkv 1.421 GB
Hitchcock 2012 WEBRip Xvid AC3-VoXHD/Torrent Downloaded From ExtraTorrent.com.txt 339 B
Gathering some info...

Register and log in Isohunt and see no captcha anymore!

4000 symbols left
Hash eb6ef2bed3d976f33da677270b26ed20e86afc25

Related torrents for "Hitchcock 2012 WEBRip Xvid AC3-VoXHD"

Torrent search:

2012 web-rip