imdb
rating

7.3
Talaash

Talaash (2012)

Crime, Drama, Musical, Romance, Thriller

Full description

Talaash (2012) DvdRip X264 DTS MSubs 720P [Team Jaffa].mkv

Size 2.69 GB   0 seeders     Added 2013-02-23 00:38:24

Stream torrent
Starting‥ You need BitLord! Get it from BitLord.com
To download or stream you need BitLord. Visit them at BitLord.com
							Quote:
General
Format : Matroska
Format version : Version 4 / Version 2
File size : 2.20 GiB
Duration : 2h 20mn
Overall bit rate : 2 245 Kbps
Encoded date : UTC 2013-02-22 07:04:40
Writing application : mkvmerge v6.0.0 ('Coming Up For Air')
Writing library : libebml v1.3.0 + libmatroska v1.4.0
Video
ID : 1
Format : AVC
Format/Info : Advanced Video Codec
Format profile : High@L3.1
Format settings, CABAC : Yes
Format settings, ReFrames : 4 frames
Codec ID : V_MPEG4/ISO/AVC
Duration : 2h 20mn
Bit rate : 1 790 Kbps
Width : 1 280 pixels
Height : 544 pixels
Display aspect ratio : 2.35:1
Frame rate mode : Constant
Frame rate : 23.976 fps
Color space : YUV
Chroma subsampling : 4:2:0
Bit depth : 8 bits
Scan type : Progressive
Bits/(Pixel*Frame) : 0.107
Stream size : 1.72 GiB (78%)
Writing library : x264 core 129 r2245 bc13772
Language : English
Default : Yes
Forced : No
Audio
ID : 2
Format : DTS
Format/Info : Digital Theater Systems
Mode : 16
Format settings, Endianness : Big
Codec ID : A_DTS
Duration : 2h 20mn
Bit rate mode : Constant
Bit rate : 755 Kbps
Channel(s) : 6 channels
Channel positions : Front: L C R, Side: L R, LFE
Sampling rate : 48.0 KHz
Bit depth : 24 bits
Compression mode : Lossy
Stream size : 758 MiB (30%)
Default : Yes
Forced : No
Text #1
ID : 3
Format : VobSub
Muxing mode : zlib
Codec ID : S_VOBSUB
Codec ID/Info : The same subtitle format used on DVDs
Language : English
Default : Yes
Forced : No
Text #2
ID : 4
Format : VobSub
Muxing mode : zlib
Codec ID : S_VOBSUB
Codec ID/Info : The same subtitle format used on DVDs
Language : Arabic
Default : No
Forced : No
Text #3
ID : 5
Format : VobSub
Muxing mode : zlib
Codec ID : S_VOBSUB
Codec ID/Info : The same subtitle format used on DVDs
Language : French
Default : No
Forced : No
Text #4
ID : 6
Format : VobSub
Muxing mode : zlib
Codec ID : S_VOBSUB
Codec ID/Info : The same subtitle format used on DVDs
Language : Dutch
Default : No
Forced : No
Talaash (2012) DvdRip X264 DTS MSubs 720P [Team Jaffa].mkv 2.69 GB
Gathering some info...

Register and log in Isohunt and see no captcha anymore!

4000 symbols left
Hash 33a4db0531d039e2ba7541d0ff323ca631d7b529

Related torrents for "Talaash (2012) DvdRip X264 DTS MSubs 720P [Team Jaffa].mkv"

Torrent search:

dvdrip x264 hd 2012