Goonj.1989.X264.AAC.RRG.DADA.DBBIANS.Com.mp4

Size 962.968 MB   0 seeders     Added 2013-02-23 09:45:31

Stream torrent
Starting‚Ä• You need BitLord! Get it from 1BitLord.com
To download or stream you need BitLord. Visit them at BitLord.com
Cover 



Screens




General

Format                                   : MP4 Video
File size                                : 918 MiB
Duration                                 : 2h 14mn
Overall bit rate                         : 951 Kbps


Video
Format                                   : AVC
Format/Info                              : Advanced Video Codec
Format profile                           : Main@L3.0
Format settings, CABAC                   : Yes
Format settings, ReFrames                : 3 frames
Codec ID                                 : 7
Duration                                 : 2h 14mn
Bit rate                                 : 814 Kbps
Width                                    : 854 pixels
Height                                   : 480 pixels
Display aspect ratio                     : 16:9
Frame rate mode                          : Constant
Frame rate                               : 25.000 fps
Color space                              : YUV
Chroma subsampling                       : 4:2:0
Bit depth                                : 8 bits
Scan type                                : Progressive
Bits/(Pixel*Frame)                       : 0.079
Stream size                              : 786 MiB (86%)

Audio
Format                                   : AAC
Format/Info                              : Advanced Audio Codec
Format profile                           : LC
Codec ID                                 : 10
Duration                                 : 2h 14mn
Bit rate                                 : 129 Kbps
Channel(s)                               : 2 channels
Channel positions                        : Front: L R
Sampling rate                            : 44.1 KHz
Compression mode                         : Lossy
Stream size                              : 124 MiB (14%)


 
http://www.imdb.com/title/tt0172509/

Genres:
Drama, Action & Adventure, Music
Language:
Hindi
Running time:
2:14:59
Partner rating: 
GREEN
Released:
Mar 7, 1989

Cast & Crew

Kumar Gaurav
Juhi Chawla
Tinnu Anand

Directors

Jalal Agha

Producers

Joy Augustine

Writers

Jalal Agha
Political activity heats up in the coastal city of Goa, India, when it gets near election time. Two candidates, one, MLA Kalekar, representing the majority of the local-speaking population, and the other, Dennis Pereira, for the local minority-speaking population, are out to prove under who the city will be best represented. And they will not leave any stone unturned to succeed. Some local college students, including Peter, who loves his class-mate Sangeeta Kalekar; their friend, Sanjeev Kamat, who secretly loves Sangeeta. Sangeeta is the daughter of local MLA Kalekar. Sanjeev comes to know that Kalekar is behind local killings, rioting, and drug supplies, and threatens to expose him, but he must himself clear himself for the murder of Peter, the man his sweetheart intends to marry. 
		
Goonj.1989.X264.AAC.RRG.DADA.DBBIANS.Com.mp4 962.968 MB
Gathering some info...

Register and log in Isohunt and see no captcha anymore!

4000 symbols left
Hash 983f89f8f9194eb80702083886fc94c789fa2100