Kinare.Kinare.1963.X264.AAC.RRG.DADA.DBBIANS.Com.mp4

Size 412.802 MB   0 seeders     Added 2013-02-23 10:01:43

Stream torrent
Starting‥ You need BitLord! Get it from BitLord.com
To download or stream you need BitLord. Visit them at BitLord.com
Cover 
 
image.html


Screens
 
image.html

www.imdb.com/title/tt0139402

General

Format                           : MP4 Video
File size                        : 394 MiB
Duration                         : 1h 52mn
Overall bit rate                 : 489 Kbps


Video
Format                           : AVC
Format/Info                      : Advanced Video Codec
Format profile                   : Main@L3.0
Format settings, CABAC           : Yes
Format settings, ReFrames        : 3 frames

Duration                         : 1h 52mn
Bit rate                         : 352 Kbps
Width                            : 640 pixels
Height                           : 360 pixels
Display aspect ratio             : 16:9
Frame rate mode                  : Constant
Frame rate                       : 25.000 fps
Color space                      : YUV
Chroma subsampling               : 4:2:0
Bit depth                        : 8 bits
Scan type                        : Progressive
Bits/(Pixel*Frame)               : 0.061
Stream size                      : 283 MiB (72%)

Audio
Format                           : AAC
Format/Info                      : Advanced Audio Codec
Format version                   : Version 4
Format profile                   : LC
Format settings, SBR             : No
Duration                         : 1h 52mn
Bit rate                         : 129 Kbps
Channel(s)                       : 2 channels
Channel positions                : Front: L R
Sampling rate                    : 44.1 KHz
Bit depth                        : 16 bits
Stream size                      : 104 MiB (26%)


Cast

Dev Anand

Meena Kumari

Kammo

Madhu

Ravi Kant

Sunder

Sukhdev

B. S. Thapa

Crew

Director

Chetan Anand

Producer
Nyay Sharma

Music Director

Jaidev

Lyrics

Nyay Sharma

Story

Nyay Sharma

Screenplay

Chetan Anand

Dialogue

Nyay Sharma

Cinematographer

Sadanand

 V. Ratra

Editor

Keshav Naidu

Playback Singer

Vinod Desai

 Sudha

 Talat Mahmood

 Asha Bhosle

 Lata Mangeshkar

 Manna Dey

 Mohammad Rafi

 Mukesh

 Sudha Malhotra

 Usha Mangeshkar

Assistant Director

M. S. Sathayu

 Ravi Khanna

 S. A. Subedar

 Thapa

Make Up Maratha

 Vishwanath Chandekar

Risking his life and separating from his family from the events of 1963 partition in post-independent India, Puran rescues Neelu and her widower father, Bhairavdas. In turn, the later hires him on his farm in Shikhpur not knowing that Puran is deeply in love with his daughter. Then Neelu finds an injured male, who is later identified as Kamal, and they permit him to live with them. He recuperates and both Neelu and he fall in love much to the chagrin of Thakur Manohar who wants to wed her, and attempts to kill Kamal on two occasions. Bhairavdas wants the police to arrest Manohar, but before that could happen Kamal departs for Bombay, leaving a note for Neelu - clarifying that he is a convicted killer who is on the run from the law, but Neelu does not get to read this note, as Puran suppresses it. Neelu's health suffers, and she is diagnosed with thrombosis of the heart and must avoid any emotional involvement
		
Kinare.Kinare.1963.X264.AAC.RRG.DADA.DBBIANS.Com.mp4 412.802 MB
Gathering some info...

Register and log in Isohunt and see no captcha anymore!

4000 symbols left
Hash 9627e3325c62df4793aabbccc6c3fdd81aeb823a