Sons of Ram (2012) 1CD DVDRip XviD ESubs

Size 657.041 MB   3 seeders     Added 2013-02-23 10:17:47

Stream torrent
Starting‥ You need BitLord! Get it from 1BitLord.com
10
To download or stream you need BitLord. Visit them at BitLord.com
Sons of Ram (2012)

 
image



[B]INFO[/B]
 
http://www.imdb.com/title/tt2317103/

[CODE]Format : AVI
Format/Info : Audio Video Interleave
File size : 612 MiB
Duration : 1h 25mn
Overall bit rate : 999 Kbps

Codec ID : XVID
Codec ID/Hint : XviD
Duration : 1h 25mn
Bit rate : 862 Kbps
Width : 688 pixels
Height : 352 pixels
Display aspect ratio : 1.955
Frame rate : 29.970 fps
Color space : YUV
Chroma subsampling : 4:2:0
Bit depth : 8 bits
Scan type : Progressive
Compression mode : Lossy
Bits/(Pixel*Frame) : 0.119
Stream size : 528 MiB (86%)
Writing library : XviD 1.2.1 (UTC 2008-12-04)

Format : AC-3
Format/Info : Audio Coding 3
Mode extension : CM (complete main)
Format settings, Endianness : Big
Codec ID : 2000
Duration : 1h 25mn
Bit rate mode : Constant
Bit rate : 128 Kbps
Channel(s) : 2 channels
Channel positions : Front: L R
Sampling rate : 48.0 KHz
Bit depth : 16 bits
Compression mode : Lossy
Stream size : 78.4 MiB (13%)
Alignment : Aligned on interleaves
Interleave, duration : 64 ms (1.92 video frames)
Interleave, preload duration : 192 ms[/CODE]






[B]SCREEN SHOTS[/B]
 
image
 
image
 
image
 
image
 
image
 
image		
Sons of Ram (2012) 1CD DVDRip XviD ESubs/DVD Cover.jpg 2.525 MB
Sons of Ram (2012) 1CD DVDRip XviD ESubs/Sons of Ram (2012) 1CD DVDRip XviD ESubs.avi 641.419 MB
Sons of Ram (2012) 1CD DVDRip XviD ESubs/Sons of Ram (2012) 1CD DVDRip XviD ESubs.srt 77.918 KB
Gathering some info...

Register and log in Isohunt and see no captcha anymore!

4000 symbols left
Hash dc466ae64893033981bdb6881fa9ca2c12fb64e7

Related torrents for "Sons of Ram (2012) 1CD DVDRip XviD ESubs"

Torrent search:

dvdrip 2012