imdb
rating

8.0
Beyonce: I Am...World Tour

Beyonce: I Am...World Tour (2010)

Music

Full description
quality   hd fullhd bd dvdrip dvdr h264 x264

Beyonce I Am World Tour 2010 BRRip 720p x264 AAC - PRiSTiNE

Size 1.002 GB   284 seeders     Added 2013-02-23 13:02:33

Stream torrent
Starting‥ You need BitLord! Get it from BitLord.com
10
To download or stream you need BitLord. Visit them at BitLord.com
_________________________  Visit us at _________________________
  
http://p2pdl.com  ____________________________  http://p2pdl.com

 
image

Beyonce I Am World Tour 2010 BRRip 720p x264 AAC - PRiSTiNE [P2PDL]
				
Genre: Documentary | Music
Beyoncé performs in concert during her world tour,
and backstage scenes show the work that goes into the production.
Director: Ed Burke
Stars: Beyoncé Knowles, Khasan Brailsford, Madonna Grimes

Info:  
http://www.imdb.com/title/tt1780781/

General
Complete name                  : Beyonce I Am World Tour 2010 BRRip 720p x264 AAC - PRiSTiNE.mp4
Format                         : MPEG-4
Format profile                 : Base Media / Version 2
Codec ID                       : mp42
File size                      : 945 MiB
Duration                       : 1h 39mn
Overall bit rate mode          : Variable
Overall bit rate               : 1 335 Kbps

Video
Format                         : AVC
Bit rate                       : 1 250 Kbps
Width                          : 1 280 pixels
Height                         : 720 pixels
Display aspect ratio           : 16:9
Frame rate mode                : Variable
Frame rate                     : 23.976 fps
Scan type                      : Progressive
Bits/(Pixel*Frame)             : 0.057
Stream size                    : 885 MiB (94%)
Writing library                : x264 core 129

Audio
Format                         : AAC
Bit rate                       : 79.9 Kbps
Channel(s)                     : 2 channels
Channel positions              : Front: L R
Sampling rate                  : 48.0 KHz
Stream size                    : 56.6 MiB (6%)

Subtitle                       : Yes ( English)


Screens: 
image 
image 
image 
image 
image


Thumbs: 
image

----------------------------------------------------------------------------------------------------


Recommend to you to use latest version of VLC player. Install K-Lite Codec Pack or shark007 codecs
in case of any kind of problem in playback (For non-VLC Media Player users). Alternatively, install
Core AVC codecs, the fastest decoder that there is coupled with Community Center Codec Pack and play
on Windows Media Player Classic. Check sample to be sure.
Enjoy!

Greets to: VYTO, a2zRG, MusiK_KinG, Neon, Kuroyukihime, TorDigger, Ash968, StyLishSaLH and staff members at
ExtraTorrent, TPB, H33T, KAT, 1337x, PublicHD, Ahashare, BTScene, SilverTorrent, LimeTorrents, TorrentMafia,
P2PDL, and all others.

Encoder Notes: Looking For Early Access To Anything You Can Provide DVDScr, R5, DVDR, BluRay, Direct
Audio, Early Music Releases, Seedboxes, Dedicated Servers anything u can provide, Advance / Promo CDs/
DVDs. If You Got anything to offer contact me at "prg@hush.com".		
Beyonce I Am World Tour 2010 BRRip 720p x264 AAC - PRiSTiNE/Beyonce I Am World Tour 2010 BRRip 720p x264 AAC - PRiSTiNE/Beyonce I Am World Tour 2010 BRRip 720p x264 AAC - PRiSTiNE.mp4 991.346 MB
Beyonce I Am World Tour 2010 BRRip 720p x264 AAC - PRiSTiNE/Cover, Preview, Screenshots/Preview.mp4 10.044 MB
Beyonce I Am World Tour 2010 BRRip 720p x264 AAC - PRiSTiNE/Cover, Preview, Screenshots/Thumbs.jpg 276.514 KB
Gathering some info...

Register and log in Isohunt and see no captcha anymore!

4000 symbols left
Hash e77225e28b59dd15e36ebc1eafb54816de2bd068

Related torrents for "Beyonce I Am World Tour 2010 BRRip 720p x264 AAC - PRiSTiNE"

Torrent search:

x264 hd 2010 bd