imdb
rating

7.2
The Package

The Package (2015)

Thriller, Horror

Full description
quality   x264 hd bd fullhd h264

The Package.2012.DVDRip.XviD.AC3{tim225}

Size 1.96 GB   1 seeders     Added 2013-02-24 01:53:24

Stream torrent
Starting‥ You need BitLord! Get it from BitLord.com
To download or stream you need BitLord. Visit them at BitLord.com
[img]image[/img]

[img]image[/img]

[img]image[/img]

[img]image[/img]

[img]image[/img]

[img]image[/img]

[img]image[/img]



[url=http://www.imdb.com/title/tt1884457/]IMDb[/url]

[url=http://www.youtube.com/watch?v=_SabAhpNb4Y]Trailer[/url]

[b]Tech[/b]

Format                                   : AVI
Format/Info                              : Audio Video Interleave
File size                                : 1.82 GiB
Duration                                 : 1h 35mn
Overall bit rate                         : 2 738 Kbps
Writing application                      : VirtualDubMod 1.5.10.2 (build 
2540/release)
Writing library                          : VirtualDubMod build 2540/release

Video
ID                                       : 0
Format                                   : MPEG-4 Visual
Format profile                           : Advanced Simple@L5
Format settings, BVOP                    : 2
Format settings, QPel                    : No
Format settings, GMC                     : No warppoints
Format settings, Matrix                  : Default (H.263)
Muxing mode                              : Packed bitstream
Codec ID                                 : XVID
Codec ID/Hint                            : XviD
Duration                                 : 1h 35mn
Bit rate                                 : 2 281 Kbps
Width                                    : 720 pixels
Height                                   : 400 pixels
Display aspect ratio                     : 16:9
Frame rate                               : 23.976 fps
Color space                              : YUV
Chroma subsampling                       : 4:2:0
Bit depth                                : 8 bits
Scan type                                : Progressive
Compression mode                         : Lossy
Bits/(Pixel*Frame)                       : 0.330
Stream size                              : 1.52 GiB (83%)
Writing library                          : XviD 1.0.3 (UTC 2004-12-20)

Audio
ID                                       : 1
Format                                   : AC-3
Format/Info                              : Audio Coding 3
Mode extension                           : CM (complete main)
Format settings, Endianness              : Big
Codec ID                                 : 2000
Duration                                 : 1h 35mn
Bit rate mode                            : Constant
Bit rate                                 : 448 Kbps
Channel(s)                               : 6 channels
Channel positions                        : Front: L C R, Side: L R, LFE
Sampling rate                            : 48.0 KHz
Bit depth                                : 16 bits
Compression mode                         : Lossy
Delay relative to video                  : 500ms
Stream size                              : 306 MiB (16%)
Alignment                                : Split accross interleaves                                    
The Package.2012.DVDRip.XviD.AC3{tim225}.avi 1.96 GB
Read Me.nfo 4.529 KB
Gathering some info...

Register and log in Isohunt and see no captcha anymore!

4000 symbols left
Hash 83162C4F999496544186A1916048281D4A3F11EB

Related torrents for "The Package.2012.DVDRip.XviD.AC3{tim225}"

Torrent search:

dvdrip 2012