Deewana Main Deewana (2013) DvdRip XviD 5.1CH 1CD ESubs [Team Jaffa]

Size 737.808 MB   0 seeders     Added 2013-02-23 14:38:35

Stream torrent
Starting‚Ä• You need BitLord! Get it from BitLord.com
To download or stream you need BitLord. Visit them at BitLord.com
							Code:
General
Format : AVI
Format/Info : Audio Video Interleave
File size : 698 MiB
Duration : 1h 52mn
Overall bit rate : 870 Kbps
Video
ID : 0
Format : MPEG-4 Visual
Format profile : Advanced Simple@L5
Format settings, BVOP : 2
Format settings, QPel : No
Format settings, GMC : No warppoints
Format settings, Matrix : Default (H.263)
Codec ID : XVID
Codec ID/Hint : XviD
Duration : 1h 52mn
Bit rate : 734 Kbps
Width : 624 pixels
Height : 272 pixels
Display aspect ratio : 2.25:1
Frame rate : 23.976 fps
Color space : YUV
Chroma subsampling : 4:2:0
Bit depth : 8 bits
Scan type : Progressive
Compression mode : Lossy
Bits/(Pixel*Frame) : 0.180
Stream size : 589 MiB (84%)
Writing library : XviD 1.2.1 (UTC 2008-12-04)
Audio
ID : 1
Format : AC-3
Format/Info : Audio Coding 3
Mode extension : CM (complete main)
Format settings, Endianness : Big
Codec ID : 2000
Duration : 1h 52mn
Bit rate mode : Constant
Bit rate : 128 Kbps
Channel(s) : 6 channels
Channel positions : Front: L C R, Side: L R, LFE
Sampling rate : 48.0 KHz
Bit depth : 16 bits
Compression mode : Lossy
Stream size : 103 MiB (15%)
Alignment : Aligned on interleaves
Interleave, duration : 64 ms (1.53 video frames)
Interleave, preload duration : 192 ms
Title : AudioFile_80_new
Subs: English
Deewana Main Deewana (2013) DvdRip XviD 5.1CH 1CD ESubs [Team Jaffa]/Deewana Main Deewana (2013) DvdRip XviD 5.1CH 1CD ESubs [Team Jaffa].avi 731.679 MB
Deewana Main Deewana (2013) DvdRip XviD 5.1CH 1CD ESubs [Team Jaffa]/Deewana Main Deewana (2013) DvdRip XviD 5.1CH 1CD ESubs [Team Jaffa].sub 6.048 MB
Deewana Main Deewana (2013) DvdRip XviD 5.1CH 1CD ESubs [Team Jaffa]/Deewana Main Deewana (2013) DvdRip XviD 5.1CH 1CD ESubs [Team Jaffa].idx 80.668 KB
Gathering some info...

Register and log in Isohunt and see no captcha anymore!

4000 symbols left
Hash 362e4bdbab4254fe47588af6f9d0b77a6115897f