imdb
rating

5.3
A Good Day to Die Hard

A Good Day to Die Hard (2013)

Action, Thriller

Full description

A.Good.Day.To.Die.Hard.2013.CAM.READNFO.XViD-26k.avi

Size 1.471 GB   5 seeders     Added 2013-02-23 19:00:56

Stream torrent
Starting‥ You need BitLord! Get it from BitLord.com
To download or stream you need BitLord. Visit them at BitLord.com
Release Name: A.Good.Day.To.Die.Hard.2013.CAM.READNFO.XViD-26k
Size: 1.37 GB
Video: AVI | 720×340 | 2 013 Kbps
Audio: English | MP3 | 128 kbps
Runtime: 1h 31mn

Subtitles: HARD CODED English subs when needed


Video
 ID : 0
 Format : MPEG-4 Visual
 Format profile : Advanced Simple@L5
 Format settings, BVOP : 2
 Format settings, QPel : Yes
 Format settings, GMC : No warppoints
 Format settings, Matrix : Default (H.263)
 Muxing mode : Packed bitstream
 Codec ID : XVID
 Codec ID/Hint : XviD
 Duration : 1h 31mn
 Bit rate : 2 013 Kbps
 Width : 720 pixels
 Height : 340 pixels
 Display aspect ratio : 2.118
 Frame rate : 25.000 fps
 Color space : YUV
 Chroma subsampling : 4:2:0
 Bit depth : 8 bits
 Scan type : Progressive
 Compression mode : Lossy
 Bits/(Pixel*Frame) : 0.329
 Stream size : 1.28 GiB (94%)
 Writing library : XviD 64

 Audio
 ID : 1
 Format : MPEG Audio
 Format version : Version 1
 Format profile : Layer 3
 Mode : Joint stereo
 Mode extension : MS Stereo
 Codec ID : 55
 Codec ID/Hint : MP3 
 Duration : 1h 31mn
 Bit rate mode : Constant
 Bit rate : 128 Kbps
 Channel(s) : 2 channels
 Sampling rate : 44.1 KHz
 Compression mode : Lossy
 Delay relative to video : 2ms
 Stream size : 83.5 MiB (6%)
 Alignment : Split accross interleaves
 Interleave, duration : 40 ms (1.00 video frame)
 Interleave, preload duration : 500 ms 

 
image



		
A.Good.Day.To.Die.Hard.2013.CAM.READNFO.XViD-26k.avi 1.471 GB
Gathering some info...

Register and log in Isohunt and see no captcha anymore!

4000 symbols left
Hash a5498ce9c527f8a8f3e303cab2b4dac71ee62bc1

Related torrents for "A.Good.Day.To.Die.Hard.2013.CAM.READNFO.XViD-26k.avi"

Torrent search:

cam 2013