2013.02.23.6N.England.v.France.hdtv.720p.x264

Size 2.567 GB   0 seeders     Added 2013-02-23 20:16:58

Stream torrent
Starting‚Ä• You need BitLord! Get it from 1BitLord.com
To download or stream you need BitLord. Visit them at BitLord.com
SPORT: Six Nations Rugby Union - England v France
On: BBC 1 HD 
Date: Saturday 23rd February 2013 
KO Time: 17:00

Live coverage from Twickenham as England renew their cross-Channel rivalry with France. England hosts have won five of their last six encounters against the French in the Six Nations, including a 24-22 victory in Paris last year which helped ensure Stuart Lancaster was given the head coach role on a permanent basis. Lancaster's young side have since impressed and frustrated in equal measure, but they began this tournament as joint favourites with France. The visitors bounced back from a poor Six Nations campaign last year to win their three autumn internationals, beating Australia when marshalled by Frederic Michalak. France's prodigal son is likely to need to be at his best again if his side are to earn only their second Six Nations win at Twickenham since 1997. Commentary by Eddie Butler and Brian Moore.


General
Complete name: 2013.02.23.6N.England.v.France.hdtv.720p.x264.mp4
Format: MPEG-4
Format profile: Base Media
Codec ID: isom
File size: 2.39 GiB
Duration: 1h 47mn
Overall bit rate mode: Variable
Overall bit rate: 3 188 Kbps

Video
ID: 1
Format: AVC
Format/Info: Advanced Video Codec
Format profile: High@L4.1
Format settings, CABAC: Yes
Format settings, ReFrames: 4 frames
Codec ID: avc1
Codec ID/Info: Advanced Video Coding
Duration: 1h 47mn
Bit rate: 3 060 Kbps
Maximum bit rate: 7 489 Kbps
Width: 1 280 pixels
Height: 720 pixels
Display aspect ratio: 16:9
Frame rate mode: Constant
Frame rate: 25.000 fps
Color space: YUV
Chroma subsampling: 4:2:0
Bit depth: 8 bits
Scan type: Progressive
Bits/(Pixel*Frame): 0.133
Stream size: 2.29 GiB (96%)
Writing library: x264 core 129 r2245 bc13772

Audio
ID: 2
Format: AAC
Format/Info: Advanced Audio Codec
Format profile: LC
Codec ID: 40
Duration: 1h 47mn
Bit rate mode: Variable
Bit rate: 124 Kbps
Maximum bit rate: 128 Kbps
Channel(s): 2 channels
Channel positions: Front: L R
Sampling rate: 48.0 KHz
Compression mode: Lossy
Delay relative to video: 80ms
Stream size: 95.0 MiB (4%)
Language: English		
2013.02.23.6N.England.v.France.hdtv.720p.x264/2013.02.23.6N.England.v.France.hdtv.720p.x264.mp4 2.564 GB
2013.02.23.6N.England.v.France.hdtv.720p.x264/2013.02.23.6N.England.v.France.hdtv.720p.x264.1.png 1.599 MB
2013.02.23.6N.England.v.France.hdtv.720p.x264/2013.02.23.6N.England.v.France.hdtv.720p.x264.2.png 1.556 MB
Gathering some info...

Register and log in Isohunt and see no captcha anymore!

4000 symbols left
Hash bfa9aa36ad82acfffe1b9030c2ace1487bab663e