Gullu Dada 3 (2013) mp4 TEAM IcTv.mp4

Size 345.502 MB   0 seeders     Added 2013-02-24 05:16:24

Stream torrent
Starting‥ You need BitLord! Get it from 1BitLord.com
10
To download or stream you need BitLord. Visit them at BitLord.com
 image 
image 
image 
image 
image 
image

Info - 
DIRECTED BY:ABRAR KHAN
PRODUCED BY:ADNAN SAJID KHAN
WRITTEN BY: SALMAN HAIDER:
MUSIC:KHALID HAMEED:
Gullu dada 3 is the sequel of gullu dada returns hyderabadi comey movie.its trailer has been launched and release date has not been updated.the movie casting is same as the previous gullu dada returns had but with little amendmend.some new faces are seen in the movie.

Media Info - 
Video
ID : 1
Format : AVC
Format/Info : Advanced Video Codec
Format profile : Main@L1.3
Format settings, CABAC : Yes
Format settings, ReFrames : 4 frames
Codec ID : avc1
Codec ID/Info : Advanced Video Coding
Duration : 1h 44mn
Bit rate mode : Variable
Bit rate : 274 Kbps
Width : 352 pixels
Height : 152 pixels
Display aspect ratio : 2.35:1
Frame rate mode : Variable
Frame rate : 29.970 fps
Minimum frame rate : 29.412 fps
Maximum frame rate : 30.303 fps
Color space : YUV
Chroma subsampling : 4:2:0
Bit depth : 8 bits
Scan type : Progressive
Bits/(Pixel*Frame) : 0.171
Stream size : 205 MiB (62%)
Writing library : x264 core 120

Audio
ID : 2
Format : AAC
Format/Info : Advanced Audio Codec
Format profile : LC
Codec ID : 40
Duration : 1h 44mn
Bit rate mode : Variable
Bit rate : 160 Kbps
Maximum bit rate : 313 Kbps
Channel(s) : 2 channels
Channel positions : Front: L R
Sampling rate : 44.1 KHz
Compression mode : Lossy
Stream size : 120 MiB (36%)
Material_Duration : 6281648
Material_StreamSize : 125625073

Ripper : lottery

Seeding 24x7... Extreme Seeding...


Enjoy!
		
Gullu Dada 3 (2013) mp4 TEAM IcTv.mp4 345.502 MB
Gathering some info...

Register and log in Isohunt and see no captcha anymore!

4000 symbols left
Hash 64c457d545eafc1a52cb8e4b1a7220e62e4c4ff3

We have tons of cool stuff like this:

Torrent search:

2013