Best of Republic of Telly 2012 HQ.DVDrip x264 AC3 DeViL303

Size 1.403 GB   0 seeders     Added 2013-02-24 12:22:47

Stream torrent
Starting‥ You need BitLord! Get it from BitLord.com
To download or stream you need BitLord. Visit them at BitLord.com
After a successful 2011, 25 million hits on You Tube and an IFTA, Republic of Telly on RTÉ Two is back. 
Cert:15
Running Time:110 minutes
File Info:
Complete name                            : Best of Republic of Telly 2012 HQ.DVDrip x264 AC3 DeViL303.mkv
Format                                   : Matroska
Format version                           : Version 1
File size                                : 1.14 GiB
Duration                                 : 1h 49mn
Overall bit rate mode                    : Variable
Overall bit rate                         : 1 497 Kbps
Encoded date                             : UTC 2013-02-23 23:34:28
Writing application                      : mkvmerge v2.5.3 (\'Boogie\') built on Mar  7 2009 15:00:41
Writing library                          : libebml v0.7.7 + libmatroska v0.8.1
Video
ID                                       : 1
Format                                   : AVC
Format/Info                              : Advanced Video Codec
Format profile                           : High@L3.0
Format settings, CABAC                   : Yes
Format settings, ReFrames                : 3 frames
Codec ID                                 : V_MPEG4/ISO/AVC
Duration                                 : 1h 49mn
Bit rate mode                            : Variable
Bit rate                                 : 1 303 Kbps
Maximum bit rate                         : 12.0 Mbps
Width                                    : 720 pixels
Height                                   : 480 pixels
Display aspect ratio                     : 16:9
Original display aspect ratio            : 3:2
Frame rate mode                          : Constant
Frame rate                               : 29.970 fps
Standard                                 : NTSC
Color space                              : YUV
Chroma subsampling                       : 4:2:0
Bit depth                                : 8 bits
Scan type                                : Progressive
Bits/(Pixel*Frame)                       : 0.126
Stream size                              : 998 MiB (85%)
Writing library                          : x264 core 93 r1542M 5b86182
Encoding settings                        : cabac=1 / ref=4 / deblock=1:-1:-1 / Default                                  : Yes
Forced                                   : No
Audio
ID                                       : 2
Format                                   : AC-3
Format/Info                              : Audio Coding 3
Mode extension                           : CM (complete main)
Format settings, Endianness              : Big
Codec ID                                 : A_AC3
Duration                                 : 1h 49mn
Bit rate mode                            : Constant
Bit rate                                 : 192 Kbps
Channel(s)                               : 2 channels
Channel positions                        : Front: L R
Sampling rate                            : 48.0 KHz
Bit depth                                : 16 bits
Compression mode                         : Lossy
Stream size                              : 150 MiB (13%)
Default                                  : Yes
Forced                                   : No
Best of Republic of Telly 2012 HQ.DVDrip x264 AC3 DeViL303/DVD Extras/Damo and Ivor - Big Box Little Box HQ.DVDrip x264 AC3 DeViL303.mkv 76.711 MB
Best of Republic of Telly 2012 HQ.DVDrip x264 AC3 DeViL303/DVD Extras/RubberBandits - Horse Outside HQ.DVDrip x264 AC3 DeViL303.mkv 68.968 MB
Best of Republic of Telly 2012 HQ.DVDrip x264 AC3 DeViL303/DVD Extras/Dead Cat Bounce - Phone Company HQ.DVDrip x264 AC3 DeViL303.mkv 28.862 MB
Gathering some info...

Register and log in Isohunt and see no captcha anymore!

4000 symbols left
Hash ccfad74f6038ad0a019b94db608e55d7a5b9556b