imdb
rating

8.2
Shogun

Shogun (1980)

Adventure, Drama, History

Full description
quality   x264 dvdrip dvdr hd bd fullhd

Shogun(1980)-alE13 DVD3-4

Size 4.319 GB   0 seeders     Added 2013-02-24 12:39:06

Stream torrent
Starting‥ You need BitLord! Get it from BitLord.com
To download or stream you need BitLord. Visit them at BitLord.com
							The file containing - sample!!!
Plik zawiera - sample !!!
gatunek: Przygodowy, Dramat historyczny
premiera: 15 września 1980 (świat) 1980-09-15
produkcja: Japonia, USA
reżyseria: Jerry London
scenariusz: Eric Bercovici
muzyka: Maurice Jarre
zdjęcia: Andrew Laszlo
czas trwania: 
cd2. 02:48:44
cd3. 01:40:55
Opis Filmu:
A English navigator becomes both a player and pawn in the complex
political games in feudal Japan.
Jest to trzecia i czwarta część pięcio płytowego wydania na DVD "Szoguna".
Początek XVII wieku. Anglik John Blackthorne jest nawigatorem na
holenderskim okręcie, który rozbija się w feudalnej Japonii, będą
cej w Portugalskiej strefie wpływów. Blackthorne musi nauczyć się
żyć po japońsku, a wkrótce wplątuje się w ich wewnętrzne spory
polityczne oraz kulturę.
Subtitles:
Polish, Spanish, French, Hebrew, Croatian, Icelandic, Hungarian, Dutch,
Norwegian, Portuguese, Romanian, Slovenian, Serbian, Finnish, Swedish,
Turkish.
Obsada:
Richard Chamberlain: John Blackthorne
Toshirô Mifune: Lord Toranaga
Yôko Shimada: Mariko
Frankie Sakai: Lord Yabu
Dane techniczne:
Shogun(1980)-alE13-DVD 3.mkv
Format : Matroska
Format version : Version 2
File size : 2.18 GiB
Duration : 2h 8mn
Overall bit rate : 2 426 Kbps
Movie name : Shogun(1980)-alE13-DVD 3
Encoded date : UTC 2013-02-24 04:02:53
Writing application : mkvmerge v5.8.0 ('No Sleep / Pillow') built on Sep 2 2012 15:37:04
Writing library : libebml v1.2.3 + libmatroska v1.3.0
Video
ID : 1
Format : AVC
Format/Info : Advanced Video Codec
Format profile : Main@L3.0
Format settings, CABAC : Yes
Format settings, ReFrames : 4 frames
Muxing mode : Header stripping
Codec ID : V_MPEG4/ISO/AVC
Duration : 2h 8mn
Bit rate : 1 545 Kbps
Width : 720 pixels
Height : 544 pixels
Display aspect ratio : 4:3
Frame rate mode : Constant
Frame rate : 25.000 fps
Color space : YUV
Chroma subsampling : 4:2:0
Bit depth : 8 bits
Scan type : Progressive
Bits/(Pixel*Frame) : 0.158
Stream size : 1.39 GiB (64%)
Writing library : x264 core 112
Language : English
Color primaries : BT.601 NTSC
Transfer characteristics : BT.709
Matrix coefficients : BT.601
Audio #1 : English
ID : 25
Format : AC-3
Format/Info : Audio Coding 3
Mode extension : CM (complete main)
Format settings, Endianness : Big
Muxing mode : Header stripping
Codec ID : A_AC3
Duration : 1h 44mn
Bit rate mode : Constant
Bit rate : 448 Kbps
Channel(s) : 6 channels
Channel positions : Front: L C R, Side: L R, LFE
Sampling rate : 48.0 KHz
Bit depth : 16 bits
Compression mode : Lossy
Stream size : 335 MiB (22%)
Audio #2 :Espnol
ID : 26
Format : AC-3
Format/Info : Audio Coding 3
Mode extension : CM (complete main)
Format settings, Endianness : Big
Muxing mode : Header stripping
Codec ID : A_AC3
Duration : 1h 44mn
Bit rate mode : Constant
Bit rate : 192 Kbps
Channel(s) : 2 channels
Channel positions : Front: L R
Sampling rate : 48.0 KHz
Bit depth : 16 bits
Compression mode : Lossy
Stream size : 143 MiB (9%)
Default : No
Forced : No
Audio #3 : Francais
ID : 27
Format : AC-3
Format/Info : Audio Coding 3
Mode extension : CM (complete main)
Format settings, Endianness : Big
Muxing mode : Header stripping
Codec ID : A_AC3
Duration : 1h 44mn
Bit rate mode : Constant
Bit rate : 192 Kbps
Channel(s) : 2 channels
Channel positions : Front: L R
Sampling rate : 48.0 KHz
Bit depth : 16 bits
Compression mode : Lossy
Stream size : 143 MiB (9%)
						
Shogun(1980)-alE13 DVD3-4/Shogun(1980)-alE13-DVD 3.mkv 2.342 GB
Shogun(1980)-alE13 DVD3-4/Shogun(1980)-alE13-DVD 4.mkv 1.953 GB
Shogun(1980)-alE13 DVD3-4/sample.mkv 23.297 MB
Gathering some info...

Register and log in Isohunt and see no captcha anymore!

4000 symbols left
Hash 364fbd3341817f23baf5916737867491900e1a19

Related torrents for "Shogun(1980)-alE13 DVD3-4"

Torrent search:

1980