Piranha.3DD.2012.HDRip.XviD.RoSubbed-SLiCK

Size 1.172 GB   0 seeders     Added 2013-02-24 12:26:50

Stream torrent
Starting‚Ä• You need BitLord! Get it from 1BitLord.com
To download or stream you need BitLord. Visit them at BitLord.com
Video
ID                                       : 0
Format                                   : MPEG-4 Visual
Format profile                           : Advanced Simple@L5
Format settings, BVOP                    : 2
Format settings, QPel                    : No
Format settings, GMC                     : No warppoints
Format settings, Matrix                  : Default (H.263)
Codec ID                                 : XVID
Codec ID/Hint                            : XviD
Duration                                 : 1h 22mn
Bit rate                                 : 1 498 Kbps
Width                                    : 720 pixels
Height                                   : 400 pixels
Display aspect ratio                     : 16:9
Frame rate                               : 23.976 fps
Color space                              : YUV
Chroma subsampling                       : 4:2:0
Bit depth                                : 8 bits
Scan type                                : Progressive
Compression mode                         : Lossy
Bits/(Pixel*Frame)                       : 0.217
Stream size                              : 886 MiB (79%)
Writing library                          : XviD 1.2.1 (UTC 2008-12-04)
Audio
ID                                       : 1
Format                                   : AC-3
Format/Info                              : Audio Coding 3
Mode extension                           : CM (complete main)
Format settings, Endianness              : Big
Codec ID                                 : 2000
Duration                                 : 1h 22mn
Bit rate mode                            : Constant
Bit rate                                 : 384 Kbps
Channel(s)                               : 6 channels
Channel positions                        : Front: L C R, Side: L R, LFE
Sampling rate                            : 48.0 KHz
Bit depth                                : 16 bits
Compression mode                         : Lossy
Stream size                              : 227 MiB (20%)
Alignment                                : Aligned on interleaves
Interleave, duration                     : 64 ms (1.53 video frames)
Interleave, preload duration             : 192 ms
Title                                    : Piranha 3DD (2012) SLiCK
 ___     _                    ___                 _      _   _          
| _ ___| |___ __ _ ___ ___  |    ___ ___ __ _ _(_)_ __| |_(_)___ _ _  
|   / -_) / -_) _` (_-lt;/ -_) | |) / -_|_-lt;/ _| _| | _   _| / _   
|_|____|______,_/__/___| |___/___/__/__|_| |_| .__/__|____/_||_|
                                                   |_|                  
====================================================================================================
83 min  -  Comedy | Horror | Thriller  -   11 May 2012 (UK) 
Having awoken from their spring break extravaganza at Lake Victoria, the 
swarm heads upstream where they look to make a meal out of Big Wet, a local 
water park where when it comes to fun, nobody does it wetter! Though they 
came to get wet, get loaded and get some, the staff and patrons get more 
than they bargained for when they must face the fiercest, most bloodthirsty 
piranhas yet. Lead by the strong-willed, studious Maddy and her friends, Barry 
and Kyle, the trio must dive in and take on these man-eating creatures using 
every ounce of their being but can they be stopped?
IMDb Link:http://www.imdb.com/title/tt1714203/
  ___                     _  _     _          
 / __|_ _ ___ _  _ _ __  | | |___| |_ ___ ___
| (_ | _/ _  || | _  | .` / _   _/ -_|_-lt;
 ___|_| ___/_,_| .__/ |_|____/_____/__/
                  |_|                        
====================================================================================================
Encoder:    FridayToker        
Source(s):  HDRip-AXED (thanks)                            
Another Great Release From SLiCK
SLiCK (Adjective): Done or operating in an impressively smooth, efficient, 
and apparently effortless way.
If You Have Anything You Think SLiCK Might Be Interseted In Please Get In Touch.
  ___             _      
 / __|_ _ ___ ___| |_ ___
| (_ | _/ -_) -_)  _|_ /
 ___|_| ______|__/__|
====================================================================================================
Hive-CM8, INSPiRAL, UnKnOwN, PRESTiGE, DiVERSiTY, INFERNO, TRiNiTY, Feel-Free, eXceSs, 
CrEwSaDe, DQ1, cOOkies, iLLUSiON, AXED, 26K And Other Good P2P Groups Out There  		
Piranha.3DD.2012.HDRip.XviD.RoSubbed-SLiCK/Piranha.3DD.2012.HDRip.XviD.RoSubbed-SLiCK.avi 1.172 GB
Piranha.3DD.2012.HDRip.XviD.RoSubbed-SLiCK/Piranha.3DD.2012.HDRip.XviD.RoSubbed-SLiCK.nfo 6.773 KB
Piranha.3DD.2012.HDRip.XviD.RoSubbed-SLiCK/Piranha.3DD.2012.HDRip.XviD.RoSubbed-SLiCK.srt 59.037 KB
Gathering some info...

Register and log in Isohunt and see no captcha anymore!

4000 symbols left
Hash 4f0fd0fdaad9c886281f60594e815a9e304d5e1e