imdb
rating

8.2
Shogun

Shogun (1980)

Adventure, Drama, History

Full description
quality   x264 dvdrip dvdr hd bd fullhd

Shogun -(1980) DVD5-alE13

Size 2.993 GB   0 seeders     Added 2013-02-24 14:38:16

Stream torrent
Starting‥ You need BitLord! Get it from 1BitLord.com
To download or stream you need BitLord. Visit them at BitLord.com
							The file containing - sample!!!
Plik zawiera - sample !!!
gatunek: Dokument
premiera: 15 września 1980 (świat) 1980-09-15
produkcja: Japonia, USA
reżyseria: Jerry London
muzyka: Maurice Jarre
zdjęcia: Andrew Laszlo
czas trwania: 01:34:31
Opis Filmu:
A documentary showing the formation of the film, speech
director, writer and actors.
Film dokumentalny, przedstawiający powstawanie filmu, wypowiedzi 
reżysera, scenarzysty i aktorów. 
Obsada:
Jerry London............Director
Eric Bercovici..........Screenwrighter
Frank Cardea............Production Executive
Richard Chamberlain.... John Blackthorne
Yôko Shimada........... Mariko
John Rhys-Davies........Rodrigues
Dane techniczne:
Shogun -(1980) DVD5-alE13.mkv
Format : Matroska
Format version : Version 2
File size : 2.40 GiB
Duration : 1h 34mn
Overall bit rate : 3 633 Kbps
Movie name : Shogun (1980)-alE13
Encoded date : UTC 2013-02-23 23:49:41
Writing application : mkvmerge v5.8.0 ('No Sleep / Pillow') built on Sep 2 2012 15:37:04
Writing library : Lavf52.94.0
Video
ID : 1
Format : AVC
Format/Info : Advanced Video Codec
Format profile : Main@L3.0
Format settings, CABAC : Yes
Format settings, ReFrames : 2 frames
Muxing mode : Header stripping
Codec ID : V_MPEG4/ISO/AVC
Duration : 1h 34mn
Bit rate : 3 500 Kbps
Width : 720 pixels
Height : 548 pixels
Display aspect ratio : 4:3
Frame rate mode : Constant
Frame rate : 25.000 fps
Color space : YUV
Chroma subsampling : 4:2:0
Bit depth : 8 bits
Scan type : Progressive
Bits/(Pixel*Frame) : 0.355
Stream size : 2.22 GiB (93%)
Writing library : x264 core 112 r1834 a51816a
Audio
ID : 2
Format : AC-3
Format/Info : Audio Coding 3
Mode extension : CM (complete main)
Format settings, Endianness : Big
Muxing mode : Header stripping
Codec ID : A_AC3
Duration : 1h 34mn
Bit rate mode : Constant
Bit rate : 192 Kbps
Channel(s) : 2 channels
Channel positions : Front: L R
Sampling rate : 48.0 KHz
Bit depth : 16 bits
Compression mode : Lossy
Stream size : 130 MiB (5%)
						
Shogun -(1980) DVD5-alE13/sample/Shogun -(1980) DVD5-alE13-012.mkv 26.813 MB
Shogun -(1980) DVD5-alE13/sample/Shogun -(1980) DVD5-alE13-015.mkv 25.779 MB
Shogun -(1980) DVD5-alE13/sample/Shogun -(1980) DVD5-alE13-009.mkv 24.953 MB
Gathering some info...

Register and log in Isohunt and see no captcha anymore!

4000 symbols left
Hash b75f7612ae7cefedb1f0afa0e95426eec297f7c8

Related torrents for "Shogun -(1980) DVD5-alE13"

Torrent search:

dvdr 1980