imdb
rating

9.2
Sherlock

Sherlock (2010)

Crime, Drama, Mystery

Full description

Sherlock (2010) S01 E03 (The Great Game) 720p MKV x264 AC3 BRrip [Pioneer].mkv

Size 2.175 GB   0 seeders     Added 2013-02-24 15:38:17

Stream torrent
Starting‥ You need BitLord! Get it from BitLord.com
10
To download or stream you need BitLord. Visit them at BitLord.com
							
Three-part BBC mini-series offering a fast-paced modernised adaptation of the classic detective novels by Arthur Conan Doyle. Laptops, mobile phones and the internet are the new tools for crime in a modern London under threat from serial killers, bombings and gang warfare. Sherlock Holmes (Benedict Cumberbatch), the most brilliant intellect of his generation, has a unique analytical brain unlike anyone else's, and staves off the ever-present threat of boredom by solving crimes, the more intricate and baffling the better. Meanwhile, his friend and flatmate John Watson (Martin Freeman) is an army doctor invalided home from the battlefields of Afghanistan. Rupert Graves, Una Stubbs and Zoe Telford co-star. Episodes are: 'A Study in Pink', 'The Blind Banker' and 'The Great Game'.
Starring: Benedict Cumberbatch, Martin Freeman, Rupert Graves
Directors: Euros Lyn, Paul McGuiganhttp://www.imdb.com/title/tt1475582/http://www.youtube.com/watch?v=Nj7ZSUkTTVI
General
Unique ID: 50001581593251340155286053369365636956 (0x259DF44EB0ADD64775840877A4E3A75C)
Complete name: E:\Sherlock (2010) S01 E03 (The Great Game) 720p MKV x264 AC3 BRrip [Pioneer].mkv
Format: Matroska
Format version: Version 2
File size: 2.03 GiB
Duration: 1h 29mn
Overall bit rate: 3 246 Kbps
Writing application: HandBrake 0.9.8
Writing library: libmkv 0.6.5
Video
ID: 1
Format: AVC
Format/Info: Advanced Video Codec
Format profile: High@L4.0
Format settings, CABAC: Yes
Format settings, ReFrames: 5 frames
Codec ID: V_MPEG4/ISO/AVC
Duration: 1h 29mn
Bit rate: 2 734 Kbps
Width: 1 280 pixels
Height: 720 pixels
Display aspect ratio: 16:9
Frame rate mode: Constant
Frame rate: 25.000 fps
Color space: YUV
Chroma subsampling: 4:2:0
Bit depth: 8 bits
Scan type: Progressive
Bits/(Pixel*Frame): 0.119
Stream size: 1.71 GiB (84%)
Writing library: x264 core 120
Language: English
Default: Yes
Forced: No
Color primaries: BT.709
Transfer characteristics: BT.709
Matrix coefficients: BT.709
Audio
ID: 2
Format: AC-3
Format/Info: Audio Coding 3
Mode extension: CM (complete main)
Format settings, Endianness: Big
Codec ID: A_AC3
Duration: 1h 29mn
Bit rate mode: Constant
Bit rate: 448 Kbps
Channel(s): 6 channels
Channel positions: Front: L C R, Side: L R, LFE
Sampling rate: 48.0 KHz
Bit depth: 16 bits
Compression mode: Lossy
Stream size: 286 MiB (14%)
Language: English
Default: Yes
Forced: No
						
Sherlock (2010) S01 E03 (The Great Game) 720p MKV x264 AC3 BRrip [Pioneer].mkv 2.175 GB
Gathering some info...

Register and log in Isohunt and see no captcha anymore!

4000 symbols left
Hash 023e5ec757457327b5320e31275990a4876969ed

Related torrents for "Sherlock (2010) S01 E03 (The Great Game) 720p MKV x264 AC3 BRrip [Pioneer].mkv"

Torrent search:

season 01 x264 hd episode 03 2010 bd