Ireland

Ireland (2004)

Drama

Full description

2013.02.24.6N.Scotland.v.Ireland.hdtv.x264

Size 1.655 GB   0 seeders     Added 2013-02-24 17:23:40

Stream torrent
Starting‥ You need BitLord! Get it from 1BitLord.com
To download or stream you need BitLord. Visit them at BitLord.com
SPORT: Six Nations Rugby Union - Scotland v Ireland
On: BBC 1 HD
Date: Sunday 24th February 2013 
Time: 13:30 to 16:00 (2 hours and 30 minutes long)
Celtic cousins collide at Murrayfield as Scotland take on Ireland, introduced by John Inverdale. The home side are attempting to rebuild under new interim coach Scott Johnson after a disastrous 2012, which began with a whitewash in the Six Nations and ended with a humiliating home defeat by Tonga. Scotlands minimum target before this tournament was two wins, which would be as many as they have managed in the previous three Six Nations campaigns combined. A victory today would be no mean feat, with Ireland having won five of their six most recent Six Nations trips to Edinburgh and able to call on fit-again talisman Brian ODriscoll. Commentary by Andrew Cotter and Philip Matthews.
General
Complete name: 2013.02.24.6N.Scotland.v.Ireland.hdtv.x264.mp4
Format: MPEG-4
Format profile: Base Media
Codec ID: isom
File size: 1.54 GiB
Duration: 2h 26mn
Overall bit rate mode: Variable
Overall bit rate: 1 504 Kbps
Video
ID: 1
Format: AVC
Format/Info: Advanced Video Codec
Format profile: High@L3.1
Format settings, CABAC: Yes
Format settings, ReFrames: 5 frames
Codec ID: avc1
Codec ID/Info: Advanced Video Coding
Duration: 2h 26mn
Bit rate: 1 376 Kbps
Maximum bit rate: 4 527 Kbps
Width: 720 pixels
Height: 416 pixels
Display aspect ratio: 1.731
Frame rate mode: Constant
Frame rate: 25.000 fps
Color space: YUV
Chroma subsampling: 4:2:0
Bit depth: 8 bits
Scan type: Progressive
Bits/(Pixel*Frame): 0.184
Stream size: 1.41 GiB (91%)
Writing library: x264 core 129 r2245 bc13772
Audio
ID: 2
Format: AAC
Format/Info: Advanced Audio Codec
Format profile: LC
Codec ID: 40
Duration: 2h 26mn
Bit rate mode: Variable
Bit rate: 124 Kbps
Maximum bit rate: 131 Kbps
Channel(s): 2 channels
Channel positions: Front: L R
Sampling rate: 48.0 KHz
Compression mode: Lossy
Delay relative to video: 80ms
Stream size: 130 MiB (8%)		
2013.02.24.6N.Scotland.v.Ireland.hdtv.x264/2013.02.24.6N.Scotland.v.Ireland.hdtv.x264.mp4 1.655 GB
2013.02.24.6N.Scotland.v.Ireland.hdtv.x264/2013.02.24.6N.Scotland.v.Ireland.hdtv.x264.nfo 2.126 KB
Gathering some info...

Register and log in Isohunt and see no captcha anymore!

4000 symbols left
Hash 992a848d1bd06d984da255c923b8040f60624f09

Related torrents for "2013.02.24.6N.Scotland.v.Ireland.hdtv.x264"

Torrent search:

x264 hdtv 2013