imdb
rating

6.5
Freaky Deaky

Freaky Deaky (2012)

Comedy

Full description
quality   dvdrip x264 h264 hd web-dl

Freaky Deaky 2012 DVDRip XViD juggs

Size 745.172 MB   114 seeders     Added 2013-02-24 18:30:43

Stream torrent
Starting‥ You need BitLord! Get it from BitLord.com
10
To download or stream you need BitLord. Visit them at BitLord.com
 http://www.imdb.com/title/tt0938305/


Format : AVI
Format/Info : Audio Video Interleave
File size : 701 MiB
Duration : 1h 32mn
Overall bit rate : 1 054 Kbps
Writing library : VirtualDub build 32842/release

Video
ID : 0
Format : MPEG-4 Visual
Format profile : Advanced Simple@L5
Format settings, BVOP : 4
Format settings, QPel : No
Format settings, GMC : No warppoints
Format settings, Matrix : Default (H.263)
Muxing mode : Packed bitstream
Codec ID : XVID
Codec ID/Hint : XviD
Duration : 1h 32mn
Bit rate : 917 Kbps
Width : 640 pixels
Height : 336 pixels
Display aspect ratio : 1.905
Frame rate : 23.976 fps
Color space : YUV
Chroma subsampling : 4:2:0
Bit depth : 8 bits
Scan type : Progressive
Compression mode : Lossy
Bits/(Pixel*Frame) : 0.178
Stream size : 610 MiB (87%)
Writing library : XviD 64

Audio
ID : 1
Format : MPEG Audio
Format version : Version 1
Format profile : Layer 3
Codec ID : 55
Codec ID/Hint : MP3
Duration : 1h 32mn
Bit rate mode : Constant
Bit rate : 128 Kbps
Channel(s) : 2 channels
Sampling rate : 44.1 KHz
Compression mode : Lossy
Stream size : 85.1 MiB (12%)
Alignment : Split accross interleaves
Interleave, duration : 42 ms (1.00 video frame)
Interleave, preload duration : 500 ms
Writing library : LAME3.99r
Encoding settings : -m s -V 4 -q 3 -lowpass 17 -b 128


Plot
Set in 1974, a pair of '60s radicals rely on their bomb-making skills on their way to becoming capitalists.

 
image 
image 
image 
image		
Freaky Deaky 2012 DVDRip XViD juggs/Freaky Deaky 2012 DVDRip XViD juggs.avi.avi 735.38 MB
Freaky Deaky 2012 DVDRip XViD juggs/Torrent Downloaded From ExtraTorrent.com.txt 339 B
Freaky Deaky 2012 DVDRip XViD juggs/sample.avi 9.791 MB
Gathering some info...

Register and log in Isohunt and see no captcha anymore!

4000 symbols left
Hash 8e30d71c8daa55cccef81bd64c4b7ac610e5af17

Related torrents for "Freaky Deaky 2012 DVDRip XViD juggs"

Torrent search:

dvdrip 2012