Sesir profesora Koste Vujica 2012 epizoda 1

Size 285.329 MB   0 seeders     Added 2013-02-24 19:25:47

Stream torrent
Starting‚Ä• You need BitLord! Get it from BitLord.com
To download or stream you need BitLord. Visit them at BitLord.com
1. EPIZODA
Format                                   : AVI
Format/Info                              : Audio Video Interleave
File size                                : 272 MiB
Duration                                 : 48mn 29s
Overall bit rate                         : 785 Kbps
Writing application                      : MEncoder SVN-r33883(20110719-gcc4.5.2)
Writing library                          : VirtualDub build 34703/release
Video
ID                                       : 0
Format                                   : MPEG-4 Visual
Format profile                           : Advanced Simple@L5
Format settings, BVOP                    : 2
Format settings, QPel                    : No
Format settings, GMC                     : No warppoints
Format settings, Matrix                  : Default (H.263)
Muxing mode                              : Packed bitstream
Codec ID                                 : XVID
Codec ID/Hint                            : XviD
Duration                                 : 48mn 29s
Bit rate                                 : 647 Kbps
Width                                    : 856 pixels
Height                                   : 480 pixels
Display aspect ratio                     : 16:9
Frame rate                               : 25.000 fps
Color space                              : YUV
Chroma subsampling                       : 4:2:0
Bit depth                                : 8 bits
Scan type                                : Progressive
Compression mode                         : Lossy
Bits/(Pixel*Frame)                       : 0.063
Stream size                              : 224 MiB (82%)
Writing library                          : XviD 64
Audio
ID                                       : 1
Format                                   : MPEG Audio
Format version                           : Version 1
Format profile                           : Layer 3
Mode                                     : Joint stereo
Mode extension                           : MS Stereo
Codec ID                                 : 55
Codec ID/Hint                            : MP3
Duration                                 : 48mn 29s
Bit rate mode                            : Constant
Bit rate                                 : 128 Kbps
Channel(s)                               : 2 channels
Sampling rate                            : 44.1 KHz
Compression mode                         : Lossy
Stream size                              : 44.4 MiB (16%)
Alignment                                : Split accross interleaves
Interleave, duration                     : 40 ms (1.00 video frame)
Interleave, preload duration             : 500 ms		
Sesir profesora Koste Vujica 2012 epizoda 1/Sesir profesora Koste Vujica 2012 epizoda 1.avi 285.329 MB
Gathering some info...

Register and log in Isohunt and see no captcha anymore!

4000 symbols left
Hash 11cb8f33c8e5eed89e5ce8cd7d9a0f35931950df