imdb
rating

7.2
Scorpion

Scorpion (2014)

Drama, Action & Adventure

Full description

Scorpions Acoustica Mkv 406p Dts.mkv

Size 2.732 GB   0 seeders     Added 2013-02-25 01:16:32

Stream torrent
Starting‥ You need BitLord! Get it from 1BitLord.com
To download or stream you need BitLord. Visit them at BitLord.com
Scorpions Acoustica Mkv 406p Dts

1.Loving You Sunday Morning
2.Is There Anybody There
3.The Zoo
4.Always Somewhere
5.Life Is Too Short
6.Holiday
7.You And I
8.When Love Kills Love
9.Tease Me, Please Me
10.Dust In The Wind
11.Send Me An Angel
12.Under The Same Sun
13.Rhythm Of Love
14.Back To You
15.Catch Your Train
16.I Wanted To Cry
17.Hurricane 2001
18.Wind Of Change
19.Love Of My Life
20.Lovedrive
21.Still Loving You

General
Unique ID : 173707587526860622878253528751678633916 (0x82AEDD4BD7D93D5D8B91E7F5BDDF37BC)
Scorpions Acoustica Mkv 406p Dts
Format : Matroska
Format version : Version 2
File size : 2.54 GiB
Duration : 1h 53mn
Overall bit rate mode : Variable
Overall bit rate : 3 221 Kbps
Movie name : Scorpions Acoustica
Encoded date : UTC 2013-01-31 14:26:16
Writing application : mkvmerge v5.7.0 ('The Whirlwind') built on Jul 8 2012 20:08:51
Writing library : libebml v1.2.3 + libmatroska v1.3.0

Video
ID : 1
Format : AVC
Format/Info : Advanced Video Codec
Format profile : High@L4.0
Format settings, CABAC : Yes
Format settings, ReFrames : 3 frames
Codec ID : V_MPEG4/ISO/AVC
Duration : 1h 53mn
Bit rate mode : Variable
Bit rate : 2 403 Kbps
Maximum bit rate : 25.0 Mbps
Width : 720 pixels
Height : 406 pixels
Display aspect ratio : 16:9
Frame rate mode : Constant
Frame rate : 50.000 fps
Color space : YUV
Chroma subsampling : 4:2:0
Bit depth : 8 bits
Scan type : Progressive
Bits/(Pixel*Frame) : 0.164
Stream size : 1.90 GiB (75%)
Writing library : x264 core 125 r2208 d9d2288
Encoding settings : cabac=1 / ref=3 / deblock=1:0:0 / analyse=0x3:0x113 / me=hex / subme=7 / psy=1 / psy_rd=1.00:0.00 / mixed_ref=1 / me_range=16 / chroma_me=1 / trellis=1 / 8x8dct=1 / cqm=0 / deadzone=21,11 / fast_pskip=1 / chroma_qp_offset=-2 / threads=12 / lookahead_threads=2 / sliced_threads=0 / nr=0 / decimate=1 / interlaced=0 / bluray_compat=0 / constrained_intra=0 / bframes=3 / b_pyramid=0 / b_adapt=1 / b_bias=0 / direct=1 / weightb=1 / open_gop=0 / weightp=2 / keyint=500 / keyint_min=50 / scenecut=40 / intra_refresh=0 / rc_lookahead=40 / rc=crf / mbtree=1 / crf=20.0 / qcomp=0.60 / qpmin=0 / qpmax=69 / qpstep=4 / vbv_maxrate=25000 / vbv_bufsize=25000 / crf_max=0.0 / nal_hrd=vbr / ip_ratio=1.40 / aq=1:1.00
Default : Yes
Forced : No

Audio
ID : 2
Format : DTS
Format/Info : Digital Theater Systems
Mode : 16
Format settings, Endianness : Big
Codec ID : A_DTS
Duration : 1h 53mn
Bit rate mode : Constant
Bit rate : 755 Kbps
Channel(s) : 6 channels
Channel positions : Front: L C R, Side: L R, LFE
Sampling rate : 48.0 KHz
Bit depth : 24 bits
Compression mode : Lossy
Stream size : 610 MiB (23%)
Language : English
Default : Yes
Forced : No		
Scorpions Acoustica Mkv 406p Dts.mkv 2.732 GB
Gathering some info...

Register and log in Isohunt and see no captcha anymore!

4000 symbols left
Hash 6c22c22fc36f71e185a167f7e043aca6572fcfe0

Related torrents for "Scorpions Acoustica Mkv 406p Dts.mkv"