imdb
rating

8.6
The Walking Dead

The Walking Dead (2010)

Action & Adventure, Drama

Full description

The Walking Dead S03E11 HDTV x264 AAC-V3nom

Size 124.858 MB   52 seeders     Added 2013-02-25 05:19:34

Stream torrent
Starting‥ You need BitLord! Get it from BitLord.com
To download or stream you need BitLord. Visit them at BitLord.com
							TV INFOThe Walking Dead S03E11 HDTV x264 AAC-V3nom

Format : MPEG-4
Format profile : Base Media / Version 2
Codec ID : mp42
File size : 119 MiB
Duration : 43mn 25s
Overall bit rate mode : Variable
Overall bit rate : 382 Kbps
Encoded date : UTC 2013-02-25 09:46:54
Tagged date : UTC 2013-02-25 10:03:13

Video
ID : 1
Format : AVC
Format/Info : Advanced Video Codec
Format profile : Main@L2.1
Format settings, CABAC : Yes
Format settings, ReFrames : 4 frames
Codec ID : avc1
Codec ID/Info : Advanced Video Coding
Duration : 43mn 24s
Bit rate mode : Variable
Bit rate : 286 Kbps
Width : 640 pixels
Height : 256 pixels
Display aspect ratio : 16:9
Frame rate mode : Variable
Frame rate : 23.976 fps
Minimum frame rate : 7.992 fps
Maximum frame rate : 23.981 fps
Color space : YUV
Chroma subsampling : 4:2:0
Bit depth : 8 bits
Scan type : Progressive
Bits/(Pixel*Frame) : 0.073
Stream size : 87.3 MiB (74%)
Writing library : x264 core 112

Audio
ID : 2
Format : AAC
Format/Info : Advanced Audio Codec
Format profile : LC
Codec ID : 40
Duration : 43mn 25s
Bit rate mode : Variable
Bit rate : 96.0 Kbps
Maximum bit rate : 123 Kbps
Channel(s) : 2 channels
Channel positions : Front: L R
Sampling rate : 48.0 KHz
Compression mode : Lossy
Delay relative to video : 167ms
Stream size : 29.8 MiB (25%)
Encoded date : UTC 2013-02-25 09:46:54
Tagged date : UTC 2013-02-25 10:03:11SOURCEThe Walking Dead S03E11 HDTV x264-2HD[ettv](THANKS)SCREENSHOTS
The Walking Dead S03E11 HDTV x264 AAC-V3nom/Torrent Download Site's/Torrent downloaded from tracker.Btarena.org.txt 43 B
The Walking Dead S03E11 HDTV x264 AAC-V3nom/Torrent Download Site's/Torrent downloaded from Extratorrent.com.txt 40 B
The Walking Dead S03E11 HDTV x264 AAC-V3nom/Torrent Download Site's/Torrent Downloaded from Limetorrents.com.txt 40 B
Gathering some info...

Register and log in Isohunt and see no captcha anymore!

4000 symbols left
Hash 9d2d04d7726f167589be82617dedc81bd610ddd5

Related torrents for "The Walking Dead S03E11 HDTV x264 AAC-V3nom"

Torrent search:

season 03 x264 hdtv episode 11