imdb
rating

7.5
The Child

The Child (2005)

Drama, Romance, Indie

Full description
quality   dvdrip x264 fullhd

Small Child Talent - Shrivastava -IBRG

Size 2.604 MB   0 seeders     Added 2013-02-25 06:57:21

Stream torrent
Starting‥ You need BitLord! Get it from BitLord.com
To download or stream you need BitLord. Visit them at BitLord.com
							
General
Complete name : Small Child Talent - Shrivastava -IBRG.mp4
Format : MPEG-4
Format profile : Facebook
Codec ID : FACE
File size : 2.48 MiB
Duration : 45s 534ms
Overall bit rate : 457 Kbps
Video
ID : 1
Format : AVC
Format/Info : Advanced Video Codec
Format profile : Baseline@L2.1
Format settings, CABAC : No
Format settings, ReFrames : 3 frames
Codec ID : avc1
Codec ID/Info : Advanced Video Coding
Duration : 45s 400ms
Bit rate mode : Variable
Bit rate : 368 Kbps
Maximum bit rate : 768 Kbps
Width : 384 pixels
Height : 288 pixels
Display aspect ratio : 4:3
Frame rate mode : Constant
Frame rate : 25.000 fps
Color space : YUV
Chroma subsampling : 4:2:0
Bit depth : 8 bits
Scan type : Progressive
Bits/(Pixel*Frame) : 0.133
Stream size : 1.97 MiB (79%)
Writing library : x264 core 116
Audio
ID : 2
Format : AAC
Format/Info : Advanced Audio Codec
Format profile : LC
Codec ID : 40
Duration : 45s 534ms
Bit rate mode : Variable
Bit rate : 92.7 Kbps
Maximum bit rate : 105 Kbps
Channel(s) : 2 channels
Channel positions : Front: L R
Sampling rate : 44.1 KHz
Compression mode : Lossy
Stream size : 515 KiB (20%)
Small Child Talent - Shrivastava -IBRG/Small Child Talent - Shrivastava -IBRG.mp4 2.603 MB
Small Child Talent - Shrivastava -IBRG/stpicz.com Free Image Hosting Site.txt 600 B
Small Child Talent - Shrivastava -IBRG/Shrivastava.txt 418 B
Gathering some info...

Register and log in Isohunt and see no captcha anymore!

4000 symbols left
Hash 1373676a43d94ef47a4f7b3600054948121a028a

Related torrents for "Small Child Talent - Shrivastava -IBRG"