If He Do Then Why You Not - Shrivastava - IBRG

Size 1.942 MB   0 seeders     Added 2013-02-25 13:19:49

Stream torrent
Starting‥ You need BitLord! Get it from 1BitLord.com
To download or stream you need BitLord. Visit them at BitLord.com
							
Complete name :If He Do Then Why You Not - Shrivastava - IBRG.mp4
Format : MPEG-4
Format profile : Facebook
Codec ID : FACE
File size : 1.85 MiB
Duration : 47s 554ms
Overall bit rate : 327 Kbps
Video
ID : 1
Format : AVC
Format/Info : Advanced Video Codec
Format profile : Baseline@L2.1
Format settings, CABAC : No
Format settings, ReFrames : 3 frames
Codec ID : avc1
Codec ID/Info : Advanced Video Coding
Duration : 47s 0ms
Bit rate mode : Variable
Bit rate : 237 Kbps
Maximum bit rate : 621 Kbps
Width : 400 pixels
Height : 320 pixels
Display aspect ratio : 5:4
Frame rate mode : Constant
Frame rate : 14.000 fps
Color space : YUV
Chroma subsampling : 4:2:0
Bit depth : 8 bits
Scan type : Progressive
Bits/(Pixel*Frame) : 0.132
Stream size : 1.33 MiB (72%)
Writing library : x264 core 116
Audio
ID : 2
Format : AAC
Format/Info : Advanced Audio Codec
Format profile : LC
Codec ID : 40
Duration : 47s 554ms
Bit rate mode : Variable
Bit rate : 90.4 Kbps
Maximum bit rate : 103 Kbps
Channel(s) : 2 channels
Channel positions : Front: L R
Sampling rate : 44.1 KHz
Compression mode : Lossy
Stream size : 525 KiB (28%)
						
If He Do Then Why You Not - Shrivastava - IBRG/If He Do Then Why You Not - Shrivastava - IBRG.mp4 1.941 MB
If He Do Then Why You Not - Shrivastava - IBRG/stpicz.com Free Image Hosting Site.txt 600 B
If He Do Then Why You Not - Shrivastava - IBRG/Shrivastava.txt 418 B
Gathering some info...

Register and log in Isohunt and see no captcha anymore!

4000 symbols left
Hash 844bbfb931f0534436ceb36322361ce56f31c07b