6 кадров

6 кадров (2014)

Full description

Теория большого взрыва (Сезон 6) Кураж Бамбей

Size 3.565 GB   0 seeders     Added 2013-02-25 15:45:45

Stream torrent
Starting‥ You need BitLord! Get it from 1BitLord.com
To download or stream you need BitLord. Visit them at BitLord.com
General
Complete name                            : D:Теория большого взрыва (Сезон 6) Кураж БамбейThe.Big.Bang.Theory.S06E15.WEB-DLRip.rus.eng.Kuraj-Bambey.avi
Format                                   : AVI
Format/Info                              : Audio Video Interleave
File size                                : 210 MiB
Duration                                 : 20mn 42s
Overall bit rate                         : 1 420 Kbps
Writing application                      : VirtualDubMod 1.5.10.2 (build 2540/release)
Writing library                          : VirtualDubMod build 2540/release

Video
ID                                       : 0
Format                                   : MPEG-4 Visual
Format profile                           : Advanced Simple@L5
Format settings, BVOP                    : 2
Format settings, QPel                    : No
Format settings, GMC                     : No warppoints
Format settings, Matrix                  : Default (H.263)
Codec ID                                 : XVID
Codec ID/Hint                            : XviD
Duration                                 : 20mn 42s
Bit rate                                 : 1 118 Kbps
Width                                    : 656 pixels
Height                                   : 368 pixels
Display aspect ratio                     : 16:9
Frame rate                               : 23.976 fps
Color space                              : YUV
Chroma subsampling                       : 4:2:0
Bit depth                                : 8 bits
Scan type                                : Progressive
Compression mode                         : Lossy
Bits/(Pixel*Frame)                       : 0.193
Stream size                              : 166 MiB (79%)
Writing library                          : XviD 1.2.1 (UTC 2008-12-04)

Audio #1
ID                                       : 1
Format                                   : MPEG Audio
Format version                           : Version 1
Format profile                           : Layer 3
Codec ID                                 : 55
Codec ID/Hint                            : MP3
Duration                                 : 20mn 42s
Bit rate mode                            : Constant
Bit rate                                 : 160 Kbps
Channel(s)                               : 2 channels
Sampling rate                            : 48.0 KHz
Compression mode                         : Lossy
Stream size                              : 23.7 MiB (11%)
Alignment                                : Aligned on interleaves
Interleave, duration                     : 42 ms (1.00 video frame)
Interleave, preload duration             : 504 ms

Audio #2
ID                                       : 2
Format                                   : MPEG Audio
Format version                           : Version 1
Format profile                           : Layer 3
Mode                                     : Joint stereo
Mode extension                           : MS Stereo
Codec ID                                 : 55
Codec ID/Hint                            : MP3
Duration                                 : 20mn 42s
Bit rate mode                            : Constant
Bit rate                                 : 128 Kbps
Channel(s)                               : 2 channels
Sampling rate                            : 48.0 KHz
Compression mode                         : Lossy
Stream size                              : 19.0 MiB (9%)
Alignment                                : Aligned on interleaves
Interleave, duration                     : 42 ms (1.00 video frame)
Interleave, preload duration             : 504 ms
Writing library                          : LAME3.99r
Encoding settings                        : -m j -V 4 -q 5 -lowpass 17 -b 128

		
Теория большого взрыва (Сезон 6) Кураж Бамбей/The.Big.Bang.Theory.S06E15.WEB-DLRip.rus.eng.Kuraj-Bambey.avi 220.592 MB
Теория большого взрыва (Сезон 6) Кураж Бамбей/The.Big.Bang.Theory.S06E16.WEB-DLRip.rus.eng.Kuraj-Bambey.avi 216.932 MB
Теория большого взрыва (Сезон 6) Кураж Бамбей/The.Big.Bang.Theory.S06E06.WEB-DLRip.rus.eng.Kuraj-Bambey.avi 214.702 MB
Gathering some info...

Register and log in Isohunt and see no captcha anymore!

4000 symbols left
Hash 1e19d803dc7dee8953a30b47f908c3c346c8f062

Related torrents for "Теория большого взрыва (Сезон 6) Кураж Бамбей"