Academy

Academy (1992)

Drama

Full description

The.Oscars.2013.The.85th.Annual.Academy.Awards.2013.EXD.RRG.DBB.DADA.mp4 Verified

Size 934.237 MB   76 seeders     Added 2013-02-26 06:01:58

Stream torrent
Starting‥ You need BitLord! Get it from 1BitLord.com
10
To download or stream you need BitLord. Visit them at BitLord.com
 
image.html 
image.html 
image.html 
image.html 
image.html 
image.html



General

Format                           : MPEG-4
Format profile                   : Base Media / Version 2
Codec ID                         : mp42
File size                        : 891 MiB
Duration                         : 2h 53mn
Overall bit rate                 : 718 Kbps
Encoded date                     : UTC 2013-02-25 11:41:35
Tagged date                      : UTC 2013-02-25 11:55:45


Video
ID                               : 1
Format                           : AVC
Format/Info                      : Advanced Video Codec
Format profile                   : Main@L3.0
Format settings, CABAC           : Yes
Format settings, ReFrames        : 4 frames
Codec ID                         : avc1
Codec ID/Info                    : Advanced Video Coding
Duration                         : 2h 53mn
Bit rate mode                    : Variable
Bit rate                         : 550 Kbps
Width                            : 720 pixels
Height                           : 404 pixels
Display aspect ratio             : 16:9
Frame rate mode                  : Variable
Frame rate                       : 29.970 fps
Minimum frame rate               : 9.990 fps
Maximum frame rate               : 29.970 fps
Color space                      : YUV
Chroma subsampling               : 4:2:0
Bit depth                        : 8 bits
Scan type                        : Progressive
Bits/(Pixel*Frame)               : 0.063
Stream size                      : 686 MiB (77%)
Writing library                  : x264 core 120

Audio
ID                               : 2
Format                           : AAC
Format/Info                      : Advanced Audio Codec
Format version                   : Version 4
Format profile                   : LC
Format settings, SBR             : No
Codec ID                         : 40
Duration                         : 2h 53mn
Bit rate mode                    : Variable
Bit rate                         : 160 Kbps
Maximum bit rate                 : 321 Kbps
Channel(s)                       : 2 channels
Channel positions                : Front: L R
Sampling rate                    : 48.0 KHz
Stream size                      : 198 MiB (22%)		
The.Oscars.2013.The.85th.Annual.Academy.Awards.2013.EXD.RRG.DBB.DADA.mp4 934.237 MB
Gathering some info...

Register and log in Isohunt and see no captcha anymore!

4000 symbols left
Hash 80bafb4c20651f9cac79d99d7d35d0ba4ca63898

Related torrents for "The.Oscars.2013.The.85th.Annual.Academy.Awards.2013.EXD.RRG.DBB.DADA.mp4"

Torrent search:

2013