imdb
rating

7.3
Rise of the Guardians

Rise of the Guardians (2012)

Animation, Family

Full description
quality   x264 hd bd dvdrip dvd fullhd

Rise of the Guardians (2012) BRRip XviD juggs Verified

Size 749.09 MB   0 seeders     Added 2013-02-26 06:38:25

Stream torrent
Starting‥ You need BitLord! Get it from BitLord.com
To download or stream you need BitLord. Visit them at BitLord.com
							
Source : SPARKS
Format : AVI
Format/Info : Audio Video Interleave
File size : 701 MiB
Duration : 1h 37mn
Overall bit rate : 1 009 Kbps
Writing library : VirtualDub build 32842/release
Video
ID : 0
Format : MPEG-4 Visual
Format profile : Advanced Simple@L5
Format settings, BVOP : 4
Format settings, QPel : No
Format settings, GMC : No warppoints
Format settings, Matrix : Default (H.263)
Muxing mode : Packed bitstream
Codec ID : XVID
Codec ID/Hint : XviD
Duration : 1h 37mn
Bit rate : 871 Kbps
Width : 640 pixels
Height : 352 pixels
Display aspect ratio : 16:9
Frame rate : 23.976 fps
Color space : YUV
Chroma subsampling : 4:2:0
Bit depth : 8 bits
Scan type : Progressive
Compression mode : Lossy
Bits/(Pixel*Frame) : 0.161
Stream size : 606 MiB (86%)
Writing library : XviD 64
Audio
ID : 1
Format : MPEG Audio
Format version : Version 1
Format profile : Layer 3
Codec ID : 55
Codec ID/Hint : MP3
Duration : 1h 37mn
Bit rate mode : Constant
Bit rate : 128 Kbps
Channel(s) : 2 channels
Sampling rate : 44.1 KHz
Compression mode : Lossy
Stream size : 89.0 MiB (13%)
Alignment : Split accross interleaves
Interleave, duration : 42 ms (1.00 video frame)
Interleave, preload duration : 500 ms
Writing library : LAME3.99r
Encoding settings : -m s -V 4 -q 3 -lowpass 17 -b 128
Plot
When the evil spirit Pitch launches an assault on Earth, the Immortal
Guardians team up to protect the innocence of children all around the world.
Rise of the Guardians (2012) BRRip XviD juggs/Rise of the Guardians (2012) BRRip XviD juggs.avi.avi 735.51 MB
Rise of the Guardians (2012) BRRip XviD juggs/Torrent Downloaded From ExtraTorrent.com.txt 339 B
Rise of the Guardians (2012) BRRip XviD juggs/sample.avi 13.58 MB
Gathering some info...

Register and log in Isohunt and see no captcha anymore!

4000 symbols left
Hash cdad25c0dcb17eb443166911ba6d1dfe47928f35

Related torrents for "Rise of the Guardians (2012) BRRip XviD juggs"

Torrent search:

2012 bd