imdb
rating

7.3
Rise of the Guardians

Rise of the Guardians (2012)

Animation, Family

Full description
quality   x264 hd bd dvdrip dvd fullhd

[ www.Speed.Cd ] - Rise.of.the.Guardians.2012.BRRip.XviD.Ac3.Feel-Free

Size 1.374 GB   0 seeders     Added 2013-02-26 08:31:44

Stream torrent
Starting‥ You need BitLord! Get it from BitLord.com
To download or stream you need BitLord. Visit them at BitLord.com
- 
http://www.Speed.Cd
 
http://www.Speed.Cd       the fast  and The Hottest Private Tracker on the net

Please Seed back to make the speed Faster!!
 ............ NFO .............
-[img]image[/img]
[img]image[/img]


Genre: Animation | Adventure | Family
Language:English
IMDb:http://www.imdb.com/title/tt1446192/
Source:1080p.BluRay.x264-SPARKS Thanks
Encoder:Tony

Format                                   : AVI
Format/Info                              : Audio Video Interleave
File size                                : 1.28 GiB
Duration                                 : 1h 37mn
Overall bit rate                         : 1 882 Kbps

Video
ID                                       : 0
Format                                   : MPEG-4 Visual
Format profile                           : Advanced Simple@L5
Format settings, BVOP                    : 1
Format settings, QPel                    : No
Format settings, GMC                     : No warppoints
Format settings, Matrix                  : Default (H.263)
Codec ID                                 : XVID
Codec ID/Hint                            : XviD
Duration                                 : 1h 37mn
Bit rate                                 : 1 489 Kbps
Width                                    : 640 pixels
Height                                   : 360 pixels
Display aspect ratio                     : 16:9
Frame rate                               : 23.976 fps
Color space                              : YUV
Chroma subsampling                       : 4:2:0
Bit depth                                : 8 bits
Scan type                                : Progressive
Compression mode                         : Lossy
Bits/(Pixel*Frame)                       : 0.269
Stream size                              : 1.01 GiB (79%)
Writing library                          : XviD 1.2.1 (UTC 2008-12-04)

Audio
ID                                       : 1
Format                                   : AC-3
Format/Info                              : Audio Coding 3
Mode extension                           : CM (complete main)
Codec ID                                 : 2000
Duration                                 : 1h 37mn
Bit rate mode                            : Constant
Bit rate                                 : 384 Kbps
Channel(s)                               : 6 channels
Channel positions                        : Front: L C R, Side: L R, LFE
Sampling rate                            : 48.0 KHz
Bit depth                                : 16 bits
Compression mode                         : Lossy
Stream size                              : 267 MiB (20%)
Alignment                                : Aligned on interleaves
Interleave, duration                     : 42 ms (1.00 video frame)
Interleave, preload duration             : 512 ms

  
Plot:
 When the evil spirit Pitch launches an assault on Earth, the Immortal Guardians team up to protect the innocence of children all around the world. 

TRAILER:



Greets:
 CRYS,MiNiSTRY,INSPiRAL,IMAGINE,LKRG,ADTRG,FXG,3Li,FLAWL3SS,CrEwSaDe,TA,iLLUSiON,EMBER,HOPE,GooN,BBnRG,NOGRP,ETRG,BHRG,iLLUMiNATi,MiSTERE.ViSiON,DTRG SAFCuk009,LU,TheFalcon007,MYSTiC,PrisM,Noir,WBZ,LAP,Rx,Kingdom,SAFCuk009+Fabreezy,HDLiTE,TWiZTED,ETRG.ELEKTRI4KA,MAGNAT,CM8
                And to all the other p2p grps past and present		
[ www.Speed.Cd ] - Rise.of.the.Guardians.2012.BRRip.XviD.Ac3.Feel-Free/Rise.of.the.Guardians.2012.BRRip.XviD.Ac3.Feel-Free.avi 1.372 GB
[ www.Speed.Cd ] - Rise.of.the.Guardians.2012.BRRip.XviD.Ac3.Feel-Free/Rise.of.the.Guardians.2012.BRRip.XviD.Ac3.Feel-Free.nfo 3.368 KB
[ www.Speed.Cd ] - Rise.of.the.Guardians.2012.BRRip.XviD.Ac3.Feel-Free/Rise_of_the_Guardians_2012.jpg 418.367 KB
Gathering some info...

Register and log in Isohunt and see no captcha anymore!

4000 symbols left
Hash 7be9be611adf20936b75ec9a6855dcb6000a1ba3

Related torrents for "[ www.Speed.Cd ] - Rise.of.the.Guardians.2012.BRRip.XviD.Ac3.Feel-Free"

Torrent search:

2012 bd