imdb
rating

6.5
Savages

Savages (2012)

Crime, Drama, Thriller

Full description

Savages[2012].BluRay Rip.720p.[Dual Audio] [Hindi+English].by K@rtik [ExD Exclusive]

Size 1.308 GB   0 seeders     Added 2013-02-26 11:38:53

Stream torrent
Starting‥ You need BitLord! Get it from 1BitLord.com
To download or stream you need BitLord. Visit them at BitLord.com
							Rip InformationFormat : Matroska
Format version : Version 2
File size : 1.21 GiB
Duration : 2h 17mn
Overall bit rate : 1 256 Kbps
Movie name : Savages[2012].BluRay Rip.720p.[Dual Audio] [Hindi+English].by K@rtik [ExD Exclusive]VideoFormat : AVC
Format/Info : Advanced Video Codec
Format profile : High@L3.1
Format settings, CABAC : Yes
Format settings, ReFrames : 4 frames
Muxing mode : Header stripping
Codec ID : V_MPEG4/ISO/AVC
Duration : 2h 17mn
Bit rate : 716 Kbps
Width : 1 280 pixels
Height : 528 pixels
Display aspect ratio : 2.40:1
Frame rate : 23.976 fps
Color space : YUV
Chroma subsampling : 4:2:0
Bit depth : 8 bits
Scan type : Progressive
Bits/(Pixel*Frame) : 0.044
Stream size : 676 MiB (55%)
Title : K@rtik
Writing library : x264 core 129 r2245 bc13772Audio 1Format : AC-3
Format/Info : Audio Coding 3
Mode extension : CM (complete main)
Format settings, Endianness : Big
Muxing mode : Header stripping
Codec ID : A_AC3
Duration : 2h 17mn
Bit rate mode : Constant
Bit rate : 320 Kbps
Channel(s) : 6 channels
Channel positions : Front: L C R, Side: L R, LFE
Sampling rate : 48.0 KHz
Bit depth : 16 bits
Compression mode : Lossy
Stream size : 315 MiB (25%)
Title : K@rtik
Language : EnglishAudio 2Format : AC-3
Format/Info : Audio Coding 3
Mode extension : CM (complete main)
Format settings, Endianness : Big
Muxing mode : Header stripping
Codec ID : A_AC3
Duration : 2h 17mn
Bit rate mode : Constant
Bit rate : 224 Kbps
Channel(s) : 2 channels
Channel positions : Front: L R
Sampling rate : 44.1 KHz
Bit depth : 16 bits
Compression mode : Lossy
Stream size : 220 MiB (18%)
Title : K@rtik
Language : Hindi==Team EXD Exclusive==Original Audio==First On Net==Sample In Torrent
Savages[2012].BluRay Rip.720p.[Dual Audio] [Hindi+English].by K@rtik [ExD Exclusive]/Cover.jpg 302.477 KB
Savages[2012].BluRay Rip.720p.[Dual Audio] [Hindi+English].by K@rtik [ExD Exclusive]/Sample/Savages[2012].Sample.mkv 12.191 MB
Savages[2012].BluRay Rip.720p.[Dual Audio] [Hindi+English].by K@rtik [ExD Exclusive]/Savages[2012].BluRay Rip.720p.[Dual Audio] [Hindi+English].by K@rtik [ExD Exclusive].mkv 1.295 GB
Gathering some info...

Register and log in Isohunt and see no captcha anymore!

4000 symbols left
Hash cb48c8686acc0aa73f1d3237a631a23f3562cdce

Related torrents for "Savages[2012].BluRay Rip.720p.[Dual Audio] [Hindi+English].by K@rtik [ExD Exclusive]"

Torrent search:

english hd hindi 2012 bd